.
Авторизация | Регистрация
Хочешь лучшие торренты? Добавь свой email!
Добавить

Торрент скачать бесплатно

  • support: webmaster@btracker.club
» » Останься со мной / The Keeping Hours (2017) WEB-DLRip [MVO] [AD] торрент скачать бесплатно


    Останься со мной / The Keeping Hours (2017) WEB-DLRip [MVO] [AD] торрент скачать бесплатно

    Опубликовал: fregat | Дата: 27-07-2018, 05:00 | .torrent скачали: 0

    Останься со мной / The Keeping Hours (2017) WEB-DLRip [MVO] [AD]Производство: США/Blumhouse Productions
    Жанр: Ужасы, триллер, драма, мелодрама
    Режиссер: Карен Монкрифф

    Актеры
    Ли Пейс, Кэрри Кун, Эми Смарт, Молли Хэйгэн, Ана Ортис, Анна Диоп, Кристина Видаль, Рэй Бэйкер, Клифф Чемберлен, Джейн Дэйли

    Описание

    Десять лет назад в жизни главных героев произошла трагедия - в автомобильной аварии погиб их сын, Джейкоб. И вот спустя десять лет благодаря череде мистических событий у разведённых супругов появляется шанс искупить вину и обрести прощение.

    Рейтинг MPAA: PG-13 (детям до 13 лет просмотр нежелателен)
    Продолжительность: 01: 34: 36
    Качество видео: WEB-DLRip
    Перевод: Многоголосый закадровый, любительский (Синема УС)
    Субтитры: Отсутствуют
    Реклама: Присутствуют вставки текстовой рекламы
    Видео: XviD, 720x304, ~1542 Kbps
    Аудио: AC-3, 2 ch, 384 Kbps

    Общее
    Полное имя : E: NNMОстанься со мнойThe Keeping Hours 2018 WEB-DLRip.avi
    Формат : AVI
    Формат/Информация : Audio Video Interleave
    Профиль формата : OpenDML
    Размер файла : 1, 28 Гбайт
    Продолжительность : 1 ч. 34 м.
    Общий поток : 1939 Кбит/сек
    Видео
    Идентификатор : 0
    Формат : MPEG-4 Visual
    Профиль формата : Advanced Simple@L5
    Настройки формата : BVOP2/Custom Matrix
    Параметр BVOP формата : 2
    Параметр QPel формата : Нет
    Параметр GMC формата : Без точки перехода
    Параметр матрицы формата : Выборочная
    Идентификатор кодека : XVID
    Идентификатор кодека/Подсказка : XviD
    Продолжительность : 1 ч. 34 м.
    Битрейт : 1542 Кбит/сек
    Ширина : 720 пикселей
    Высота : 304 пикселя
    Соотношение сторон : 2, 35: 1
    Частота кадров : 23, 976 (24000/1001) кадра/сек
    Цветовое пространство : YUV
    Субдискретизация насыщенности : 4: 2: 0
    Битовая глубина : 8 бит
    Тип развёртки : Прогрессивная
    Метод сжатия : С потерями
    Бит/(Пиксели*Кадры) : 0.294
    Размер потока : 1, 02 Гбайт (80%)
    Библиотека кодирования : XviD 1.2.1 (UTC 2008-12-04)
    Аудио
    Идентификатор : 1
    Формат : AC-3
    Формат/Информация : Audio Coding 3
    Идентификатор кодека : 2000
    Продолжительность : 1 ч. 34 м.
    Вид битрейта : Постоянный
    Битрейт : 384 Кбит/сек
    Каналы : 2 канала
    Расположение каналов : Front: L R
    Частота : 48, 0 КГц
    Частота кадров : 31, 250 кадров/сек (1536 SPF)
    Битовая глубина : 16 бит
    Метод сжатия : С потерями
    Размер потока : 260 Мбайт (20%)
    Выравнивание : Соединение по промежуткам
    Продолжительность промежутка : 32 мс. (0, 77 видеокадр)
    ServiceKind/String : Complete Main

    Скриншоты для ознакомления



    Все одноименные релизы в Клубе Время раздачи: 24/7 (до появления первых 3-5 скачавших)


    Останься со мной/The Keeping Hours (2017) WEB-DLRip [MVO] [AD]
    Рейтинг →
     (голосов: 1, оценка 5/5, голосовать можно 1 раз )

    Другие торренты по теме:

  • Останься со мной / Stand by Me (1986) BDRip [720p] [25th Anniversary Edition] [VO]
  • Дораэмон: Останься со мной / Stand by Me Doraemon (2014) BDRip 3D [H.264 / 1080p] [Вертикальная анаморфная стереопара] скачать через торрент бесплатно
  • Дораэмон: Останься со мной / Stand by Me Doraemon (2014) BDRip [H.264 / 720p]
  • Дораэмон: Останься со мной / Stand by Me Doraemon (2014) BDRemux 3D [H.264 / 1080p] [ISO]
  • Останься со мной / Stand by Me (1986) BDRip [H.264 / 1080p-LQ]
  • Останься со мной / The Keeping Hours (2017) WEB-DLRip [H.264 / 1080p-LQ] [Line, AD]


    • Комментарии (0):

      Информация

      Информация

        Посетители, находящиеся в группе Гости, не могут оставлять комментарии в данной новости.

        ↓ Меню




        ↓ Опрос

        Вы добавили сайт в закладки?
        Да
        Нет


        Top 10 за месяц (Другое)