.
Авторизация | Регистрация
Хочешь лучшие торренты? Добавь свой email!
Добавить

Торрент скачать бесплатно

  • support: webmaster@btracker.club
» » Дьявольский кузнец / Errementari (2017) WEBRip [H.264] [VO] [AD] торрент скачать бесплатно


    Дьявольский кузнец / Errementari (2017) WEBRip [H.264] [VO] [AD] торрент скачать бесплатно

    Опубликовал: fregat | Дата: 27-07-2018, 05:00 | .torrent скачали: 4

    Дьявольский кузнец / Errementari (2017) WEBRip [H.264] [VO] [AD]Производство: Испания, Франция/Gariza Produkzioak, Ikusgarri Films
    Жанр: Ужасы, Фэнтези
    Режиссер: Paul Urkijo Alijo

    Актеры
    Кандидо Уранга, Энеко Сагардов, Uma Bracaglia, Рамон Агирр, Горка Агинагальде, Хосеан Бенгоэчеа, Хосе Рамон Аргойтия, Иньиго де ла Иглесиа, Гоцон Санчес Сабино

    Описание

    Опираясь в своей основе на одну баскскую легенду, эта история, приправленная черным юмором, готическими ужасами и приключенческим норовом, поведает о девочке-сироте, которая в поисках своей игрушки попадает к кузнецу, чья слава весьма дурна - о нем ходят легенды, что с ним якшается сам сатана.
    В это время в близлежащей деревне появляется некий чиновник, уверяющий местных крестьян, что этот нелюдимый кузнец прячет в своем доме золото.

    Продолжительность: 01: 38: 40
    Качество видео: WEBRip
    Перевод: Одноголосый закадровый, любительский (Хихикающий доктор)
    Субтитры: отсутствуют
    Реклама: аудио, видео и текстовые вставки рекламы (немного, в титрах)
    Видео: AVC/H.264, 912x482, ~900 Kbps
    Аудио: MP3, 2 ch, 192 Kbps

    General
    Unique ID : 225069761275543256953420810494041477101 (0xA952DBF9E21B942474D6EF22E95D4FED)
    Complete name : /media/win/TORRENT/UPLOAD_TORRENTS/Errementari.2017.WEBRipAVC.mkv
    Format : Matroska
    Format version : Version 4/Version 2
    File size : 773 MiB
    Duration : 1 h 38 min
    Overall bit rate : 1 095 kb/s
    Movie name : Errementari_2017_WEBRipAVC
    Encoded date : UTC 2018-07-26T10: 48: 58Z
    Writing application : HandBrake 1.1.1 2018061800
    Writing library : Lavf57.7.2
    Video
    ID : 1
    Format : AVC
    Format/Info : Advanced Video Codec
    Format profile : High@L4
    Format settings : CABAC/12 Ref Frames
    Format settings, CABAC : Yes
    Format settings, ReFrames : 12 frames
    Codec ID : V_MPEG4/ISO/AVC
    Duration : 1 h 38 min
    Bit rate : 900 kb/s
    Width : 912 pixels
    Height : 482 pixels
    Display aspect ratio : 1.892
    Frame rate mode : Constant
    Frame rate : 24.000 FPS
    Color space : YUV
    Chroma subsampling : 4: 2: 0
    Bit depth : 8 bits
    Scan type : Progressive
    Bits/(Pixel*Frame) : 0.085
    Stream size : 622 MiB (80%)
    Writing library : x264 core 152 r2854 e9a5903
    Encoding settings : cabac=1/ref=12/deblock=1: 0: 0/analyse=0x3: 0x113/me=umh/subme=9/psy=1/psy_rd=1, 00: 0, 00/mixed_ref=1/me_range=24/chroma_me=1/trellis=1/8x8dct=1/cqm=0/deadzone=21, 11/fast_pskip=1/chroma_qp_offset=-2/threads=6/lookahead_threads=1/sliced_threads=0/nr=0/decimate=1/interlaced=0/bluray_compat=0/constrained_intra=0/bframes=6/b_pyramid=2/b_adapt=2/b_bias=0/direct=1/weightb=1/open_gop=0/weightp=1/keyint=240/keyint_min=24/scenecut=40/intra_refresh=0/rc_lookahead=30/rc=2pass/mbtree=1/bitrate=900/ratetol=1, 0/qcomp=0, 60/qpmin=0/qpmax=69/qpstep=4/cplxblur=20, 0/qblur=0, 5/vbv_maxrate=25000/vbv_bufsize=31250/nal_hrd=none/filler=0/ip_ratio=1, 40/aq=1: 1, 00
    Default : Yes
    Forced : No
    Color range : Limited
    Color primaries : BT.709
    Transfer characteristics : BT.709
    Matrix coefficients : BT.709
    Audio
    ID : 2
    Format : MPEG Audio
    Format version : Version 1
    Format profile : Layer 3
    Format settings : Joint stereo/MS Stereo
    Codec ID : A_MPEG/L3
    Codec ID/Hint : MP3
    Duration : 1 h 38 min
    Bit rate mode : Constant
    Bit rate : 192 kb/s
    Channel(s) : 2 channels
    Sampling rate : 44.1 kHz
    Compression mode : Lossy
    Stream size : 136 MiB (18%)
    Title : Stereo
    Writing library : LAME3.100
    Default : Yes
    Forced : No

    Скриншоты для ознакомления



    Все одноименные релизы в Клубе
    Время раздачи: с 09: 00 до 21: 00 до пяти скачавших (до появления первых 3-5 скачавших)


    Дьявольский кузнец/Errementari (2017) WEBRip [H.264] [VO] [AD]
    Рейтинг →
     (голосов: 1, оценка 3/5, голосовать можно 1 раз )

    Другие торренты по теме:

  • Дьявольский / The Diabolical (2015) BDRip [H.264 / 1080p] [EN] скачать через торрент бесплатно
  • Дьявольский / The Diabolical (2015) BDRip [H.264 / 720p] [EN] скачать через торрент бесплатно
  • Дьявольский / The Diabolical (2015) HDRip [VO] скачать через торрент бесплатно
  • Дьявольский / The Diabolical (2015) BDRemux [H.264 / 1080p] [VO] скачать через торрент бесплатно
  • Наталья Солнцева | Дьявольский поезд (2016) [FB2]
  • Diamon Jones: Devils Contract / Даймон Джонс: Дьявольский контракт (2011) [Ru] (1.0) Unofficial
  • Исполнитель желаний 3: Дьявольский камень / Wishmaster 3: Beyond the Gates of Hell (2001) WEB-DLRip [H.264]
  • Джеймс Хедли Чейз | Сатана в сатине. Не мое дело. Дьявольский мотель. Охота на блондинок (2011) [MP3]


    • Комментарии (0):

      Информация

      Информация

        Посетители, находящиеся в группе Гости, не могут оставлять комментарии в данной новости.

        ↓ Меню




        ↓ Опрос

        Вы добавили сайт в закладки?
        Да
        Нет


        Top 10 за месяц (Другое)