.
Авторизация | Регистрация
Хочешь лучшие торренты? Добавь свой email!
Добавить

Торрент скачать бесплатно

  • support: webmaster@btracker.club
» » Party-zan фильм (2016) WEB-DLRip [H.264 / 1080p-LQ] [AD] торрент скачать бесплатно


    Party-zan фильм (2016) WEB-DLRip [H.264 / 1080p-LQ] [AD] торрент скачать бесплатно

    Опубликовал: fregat | Дата: 6-12-2017, 05:00 | .torrent скачали: 2

    Party-zan фильм (2016) WEB-DLRip [H.264 / 1080p-LQ] [AD]Производство: Беларусь/Bez Buslou Arts
    Жанр: Комедия
    Режиссер: Андрей Курейчик, Сергей Дмитренко

    Актеры
    Александр Тарасов, Александр Душечкин, Алиса Авчинник, Александр Ефремов, Александр Гусев, Юрий Наумов, Юрий Зинченко, Сергей Власов, Эвелина Сакуро

    Описание

    Два молодых парня неудачливый бизнесмен и программист, оставшись без работы, случайно получают шанс осуществить свою белорусскую мечту — сразу заработать очень много денег. Представившись белорусскими кинопродюсерами, они берутся снять несколько военных сцен для московской киногруппы, но все начинает идти не так. Модный московский режиссёр и именитый оператор уже приехали, кинозвёзды в пути… А перед новоиспечёнными продюсерами маячат столкновение с бандитами и тюрьма за мошенничество!

    Возраст: 12+ (зрителям, достигшим 12 лет)
    Продолжительность: 01: 32: 05
    Качество видео: WEB-DLRip
    Перевод: Не требуется (язык русский)
    Субтитры: Отсутствуют
    Реклама: Присутствуют вставки текстовой рекламы!
    Видео: AVC, 1920x796 (2.40: 1), 25.000 fps, 5 500 Kbps (0.127 bit/pixel)
    Аудио: AC-3, 48.0 KHz, 2 ch, 384 Kbps, CBR

    Общее
    Полное имя : D: NNMParty-zan фильмPartyzan 2016 WEB-DLRip 1080p-LQ.mkv
    Формат : Matroska
    Версия формата : Version 2
    Размер файла : 3, 43 Гбайт
    Продолжительность : 1 ч. 32 м.
    Режим общего битрейта : Переменный
    Общий поток : 5327 Кбит/сек
    Программа кодирования : libmatroska 1.4.1
    Видео
    Идентификатор : 1
    Формат : AVC
    Формат/Информация : Advanced Video Codec
    Профиль формата : High@L4.1
    Параметр CABAC формата : Да
    Параметр RefFrames формата : 5 кадров
    Идентификатор кодека : V_MPEG4/ISO/AVC
    Продолжительность : 1 ч. 32 м.
    Вид битрейта : Переменный
    Битрейт : 4837 Кбит/сек
    Максимальный битрейт : 5500 Кбит/сек
    Ширина : 1920 пикселей
    Высота : 796 пикселей
    Соотношение сторон : 2, 40: 1
    Режим частоты кадров : Постоянный
    Частота кадров : 25, 000 кадров/сек
    Стандарт вещания : Component
    Цветовое пространство : YUV
    Субдискретизация насыщенности : 4: 2: 0
    Битовая глубина : 8 бит
    Тип развёртки : Прогрессивная
    Бит/(Пиксели*Кадры) : 0.127
    Размер потока : 3, 11 Гбайт (91%)
    Default : Нет
    Forced : Нет
    Аудио
    Идентификатор : 2
    Формат : AC-3
    Формат/Информация : Audio Coding 3
    Параметр Endianness формата : Big
    Идентификатор кодека : A_AC3
    Продолжительность : 1 ч. 32 м.
    Вид битрейта : Постоянный
    Битрейт : 384 Кбит/сек
    Каналы : 2 канала
    Расположение каналов : Front: L R
    Частота : 48, 0 КГц
    Частота кадров : 31, 250 кадров/сек (1536 SPF)
    Битовая глубина : 16 бит
    Метод сжатия : С потерями
    Размер потока : 253 Мбайт (7%)
    ServiceKind/String : Complete Main
    Default : Нет
    Forced : Нет

    Скриншоты для ознакомления



    Все одноименные релизы в Клубе Время раздачи: Круглосуточно до 10 скачавших


    Party-zan фильм (2016) WEB-DLRip [H.264/1080p-LQ] [AD]
    Рейтинг →
     (голосов: 1, оценка 4/5, голосовать можно 1 раз )

    Другие торренты по теме:

  • Party-zan фильм (2016) WEB-DLRip [AD]


    • Комментарии (0):

      Информация

      Информация

        Посетители, находящиеся в группе Гости, не могут оставлять комментарии в данной новости.

        ↓ Меню




        ↓ Опрос

        Вы добавили сайт в закладки?
        Да
        Нет


        Top 10 за месяц (Другое)