.
Авторизация | Регистрация
Хочешь лучшие торренты? Добавь свой email!
Добавить

Торрент скачать бесплатно

  • support: webmaster@btracker.club
» » Party-zan фильм (2016) WEB-DLRip [AD] торрент скачать бесплатно


    Party-zan фильм (2016) WEB-DLRip [AD] торрент скачать бесплатно

    Опубликовал: fregat | Дата: 6-12-2017, 05:00 | .torrent скачали: 4

    Party-zan фильм (2016) WEB-DLRip [AD]Производство: Беларусь/Bez Buslou Arts
    Жанр: Комедия
    Режиссер: Андрей Курейчик, Сергей Дмитренко

    Актеры
    Александр Тарасов, Александр Душечкин, Алиса Авчинник, Александр Ефремов, Александр Гусев, Юрий Наумов, Юрий Зинченко, Сергей Власов, Эвелина Сакуро

    Описание

    Два молодых парня неудачливый бизнесмен и программист, оставшись без работы, случайно получают шанс осуществить свою белорусскую мечту — сразу заработать очень много денег. Представившись белорусскими кинопродюсерами, они берутся снять несколько военных сцен для московской киногруппы, но все начинает идти не так. Модный московский режиссёр и именитый оператор уже приехали, кинозвёзды в пути… А перед новоиспечёнными продюсерами маячат столкновение с бандитами и тюрьма за мошенничество!

    Возраст: 12+ (зрителям, достигшим 12 лет)
    Продолжительность: 01: 32: 05
    Качество видео: WEB-DLRip
    Перевод: Не требуется (язык русский)
    Субтитры: Отсутствуют
    Реклама: Присутствуют вставки текстовой рекламы!
    Видео: MPEG4, XviD, 720x304 (2.35: 1), 25.000 fps, 1 651 Kbps (0.302 bit/pixel)
    Аудио: AC-3, 48.0 KHz, 2 ch, 384 Kbps, CBR

    Общее
    Полное имя : D: NNMParty-zan фильмPartyzan 2016 WEB-DLRip.avi
    Формат : AVI
    Формат/Информация : Audio Video Interleave
    Профиль формата : OpenDML
    Размер файла : 1, 32 Гбайт
    Продолжительность : 1 ч. 32 м.
    Общий поток : 2048 Кбит/сек
    Видео
    Идентификатор : 0
    Формат : MPEG-4 Visual
    Профиль формата : Advanced Simple@L5
    Параметр BVOP формата : 1
    Параметр QPel формата : Нет
    Параметр GMC формата : Без точки перехода
    Параметр матрицы формата : Default (MPEG)
    Идентификатор кодека : XVID
    Идентификатор кодека/Подсказка : XviD
    Продолжительность : 1 ч. 32 м.
    Битрейт : 1651 Кбит/сек
    Ширина : 720 пикселей
    Высота : 304 пикселя
    Соотношение сторон : 2, 35: 1
    Частота кадров : 25, 000 кадров/сек
    Цветовое пространство : YUV
    Субдискретизация насыщенности : 4: 2: 0
    Битовая глубина : 1 бит
    Тип развёртки : Прогрессивная
    Метод сжатия : С потерями
    Бит/(Пиксели*Кадры) : 0.302
    Размер потока : 1, 06 Гбайт (81%)
    Библиотека кодирования : XviD 1.2.1 (UTC 2008-12-04)
    Аудио
    Идентификатор : 1
    Формат : AC-3
    Формат/Информация : Audio Coding 3
    Параметр Endianness формата : Big
    Идентификатор кодека : 2000
    Продолжительность : 1 ч. 32 м.
    Вид битрейта : Постоянный
    Битрейт : 384 Кбит/сек
    Каналы : 2 канала
    Расположение каналов : Front: L R
    Частота : 48, 0 КГц
    Частота кадров : 31, 250 кадров/сек (1536 SPF)
    Битовая глубина : 16 бит
    Метод сжатия : С потерями
    Размер потока : 253 Мбайт (19%)
    Выравнивание : Соединение по промежуткам
    Продолжительность промежутка : 32 мс. (0, 80 видеокадр)
    ServiceKind/String : Complete Main

    Скриншоты для ознакомления



    Все одноименные релизы в Клубе Время раздачи: Круглосуточно до 10 скачавших


    Party-zan фильм (2016) WEB-DLRip [AD]
    Рейтинг →
     (голосов: 1, оценка 4/5, голосовать можно 1 раз )

    Другие торренты по теме:

  • Party-zan фильм (2016) WEB-DLRip [H.264 / 1080p-LQ] [AD]


    • Комментарии (0):

      Информация

      Информация

        Посетители, находящиеся в группе Гости, не могут оставлять комментарии в данной новости.

        ↓ Меню




        ↓ Опрос

        Вы добавили сайт в закладки?
        Да
        Нет


        Top 10 за месяц (Другое)