.
Авторизация | Регистрация

Торрент скачать бесплатно

  • support: webmaster@btracker.club
» » Лего Фильм: Бэтмен / The Lego Batman Movie (2017) DCPRip [2K] [Hi10P, Hi444PP] [Трейлер] торрент скачать бесплатно


    Лего Фильм: Бэтмен / The Lego Batman Movie (2017) DCPRip [2K] [Hi10P, Hi444PP] [Трейлер] торрент скачать бесплатно

    Дата: 3-07-2016, 04:00 | .torrent скачали: 68

    Лего Фильм: Бэтмен / The Lego Batman Movie (2017) DCPRip [2K] [Hi10P, Hi444PP] [Трейлер]Производство: США, Дания/Animal Logic, Animal Logic, DC Entertainment
    Жанр: Мультфильм, Боевик, Комедия, Семейный
    Режиссер: Крис МакКей

    Актеры
    Рэйф Файнс, Розарио Доусон, Уилл Арнетт, Майкл Сера, Зак Галифианакис, Мэрайя Кэри, Сьюзэн Беннетт

    Описание

    Город Готэм снова в беде! На этот раз заклятый враг Бэтмена, известный как Джокер намерен захватить этот процветающий мегаполис. Известному во всём мире супергерою предстоит спасти свой родной город, научиться работать в команде, и, возможно, но только возможно, немножко развеселиться.

    Дата мировой премьеры: 9 февраля 2017
    Дата российской премьеры: 9 февраля 2017, Каро-Премьер
    Продолжительность: 00: 01: : 33
    Качество видео: DCPRip
    Перевод: Дублированный
    Видео: AVC, 2048x852 (2.40: 1), ~20.9 Mbps, 24.000 fps
    Аудио: FLAC, 48.0 KHz, 6 ch, ~3127 kbps, VBR (Russian)
    Код:

    General
    Unique ID : 249803834921534805746125175675485079095 (0xBBEE77F5808A910C803ABC36EC56C637)
    Complete name : E:The.Lego.Batman.Movie.2017.TRL.mkv
    Format : Matroska
    Format version : Version 4/Version 2
    File size : 266 MiB
    Duration : 1mn 33s
    Overall bit rate mode : Variable
    Overall bit rate : 24.0 Mbps
    Movie name : l0ngb0y f0r nnm
    Encoded date : UTC 2016-07-02 09:12:12
    Writing application : mkvmerge v8.9.0 (\'Father Daughter\') 64bit
    Writing library : libebml v1.3.3 + libmatroska v1.4.4
    Cover : Yes
    Attachments : cover.jpg
    Video
    ID : 1
    Format : AVC
    Format/Info : Advanced Video Codec
    Format profile : High 4:4:4 Predictive@L5
    Format settings, CABAC : Yes
    Format settings, ReFrames : 11 frames
    Codec ID : V_MPEG4/ISO/AVC
    Duration : 1mn 33s
    Bit rate : 20.9 Mbps
    Width : 2 048 pixels
    Height : 852 pixels
    Display aspect ratio : 2.40:1
    Frame rate mode : Constant
    Frame rate : 24.000 fps
    Color space : YUV
    Chroma subsampling : 4:4:4
    Bit depth : 10 bits
    Scan type : Progressive
    Bits/(Pixel*Frame) : 0.498
    Stream size : 231 MiB (87%)
    Writing library : x264 core 142 r2431+42 c69a006 tMod [10-bit@all X86_64]
    Encoding settings : cabac=1/ref=11/deblock=1:-3:-2/analyse=0x3:0x133/me=umh/subme=11/psy=1/fade_compensate=0.00/psy_rd=1.00:0.15/mixed_ref=1/me_range=48/chroma_me=1/trellis=2/8x8dct=1/cqm=0/deadzone=21, 11/fast_pskip=0/chroma_qp_offset=3/threads=12/lookahead_threads=3/sliced_threads=0/nr=0/decimate=0/interlaced=0/bluray_compat=0/constrained_intra=0/fgo=0/bframes=15/b_pyramid=2/b_adapt=2/b_bias=0/direct=3/weightb=1/open_gop=0/weightp=1/keyint=250/keyint_min=24/scenecut=40/intra_refresh=0/rc=crf/mbtree=0/crf=13.0000/qcomp=0.60/qpmin=0:0:0/qpmax=81:81:81/qpstep=4/ip_ratio=1.25/pb_ratio=1.30/aq=1:0.80/aq-sensitivity=10.00/aq-factor=1.00:1.00:1.00/aq2=0/aq3=0
    Language : Russian
    Default : Yes
    Forced : No
    Color range : Full
    Color primaries : BT.709
    Transfer characteristics : BT.709
    Matrix coefficients : BT.709
    Audio
    ID : 2
    Format : FLAC
    Format/Info : Free Lossless Audio Codec
    Codec ID : A_FLAC
    Duration : 1mn 33s
    Bit rate mode : Variable
    Bit rate : 3 127 Kbps
    Channel(s) : 6 channels
    Channel positions : Front: L C R, Side: L R, LFE
    Sampling rate : 48.0 KHz
    Frame rate : 41.667 fps (1152 spf)
    Bit depth : 24 bits
    Stream size : 34.7 MiB (13%)
    Title : DUB FLAC5.1 @ 3127 Kbps
    Writing library : libFLAC 1.0.25 (UTC 2007-09-17)
    Language : Russian
    Default : Yes
    Forced : No


    Скриншоты для ознакомления




    Лего Фильм: Бэтмен/The Lego Batman Movie (2017) DCPRip [2K] [Hi10P, Hi444PP] [Трейлер]
    Рейтинг →
     (голосов: 1, оценка 4/5, голосовать можно 1 раз )

    Другие торренты по теме:

  • Лего фильм: Бэтмен / The LEGO Batman Movie (2017) CamRip
  • VA, Lorne Balfe - The LEGO Batman Movie / Лего Фильм: Бэтмен (Original Motion Picture Soundtrack) (2017) [FLAC|Lossless|WEB-DL|tracks]<Soundtrack, Score>
  • VA, Lorne Balfe - The LEGO Batman Movie / Лего Фильм: Бэтмен (Original Motion Picture Soundtrack) (2017) [MP3|320 кб / с]<Soundtrack, Score>
  • Лего Фильм: Бэтмен / The LEGO Batman Movie (2017) TS
  • Лего Фильм: Бэтмен / The LEGO Batman Movie (2017) WEB-DL [H.264 / 1080p-LQ] [EN / RU, EN Sub]
  • Лего Фильм: Бэтмен / The LEGO Batman Movie (2017) WEB-DLRip
  • Лего Фильм: Бэтмен / The LEGO Batman Movie (2017) WEB-DLRip [H.264]
  • Лего Фильм: Бэтмен / The LEGO Batman Movie (2017) WEB-DL [H.264 / 1080p-LQ]


    • Комментарии (0):

      Информация

      Информация

        Посетители, находящиеся в группе Гости, не могут оставлять комментарии в данной новости.

        ↓ Меню




        ↓ Опрос

        Вы добавили сайт в закладки?
        Да
        Нет


        Top 10 за месяц (Другое)