.
Авторизация | Регистрация
Хочешь лучшие торренты? Добавь свой email!
Добавить

Торрент скачать бесплатно

  • support: webmaster@btracker.club
» » Grant Green - Talkin About (1964) 1999, Blue Note Records[FLAC|Lossless|tracks + .cue] <Hard Bop, Guitar Jazz> торрент скачать бесплатно


    Grant Green - Talkin About (1964) 1999, Blue Note Records[FLAC|Lossless|tracks + .cue] <Hard Bop, Guitar Jazz> торрент скачать бесплатно

    Опубликовал: fregat | Дата: 25-03-2016, 17:57 | .torrent скачали: 36

    Grant Green - Talkin About (1964) 1999, Blue Note Records[FLAC|Lossless|tracks + .cue] &ltHard Bop, Guitar Jazz>Год записи: 1964
    Год: 1999
    Жанр: Hard Bop, Guitar Jazz
    Издание: Blue Note Records - 7243 5 21958 2 4
    Продолжительность: 00: 41: 06
    Кодек: FLAC (tracks+.cue)
    Битрейт: Lossless
    Источник (релизер): whwendt
    Страна-производитель диска: USA
    Наличие сканов в содержимом раздачи: да

    Треклист

    01.Talkin\' About J.C. 11: 45
    02.People 07: 29
    03.Luny Tune 07: 44
    04.You Don\'t Know What Love Is 07: 39
    05.I\'m an Old Cowhand 06: 32
    Код:

    Exact Audio Copy V0.99 prebeta 5 from 4. May 2009
    EAC extraction logfile from 9. June 2009, 12:19
    Grant Green/Talkin\' About
    Used drive : TSSTcorpCD/DVDW TS-H652L Adapter: 0 ID: 0
    Read mode : Secure
    Utilize accurate stream : Yes
    Defeat audio cache : Yes
    Make use of C2 pointers : No
    Read offset correction : 6
    Overread into Lead-In and Lead-Out : No
    Fill up missing offset samples with silence : Yes
    Delete leading and trailing silent blocks : No
    Null samples used in CRC calculations : Yes
    Used interface : Installed external ASPI interface
    Gap handling : Appended to previous track
    Used output format : User Defined Encoder
    Selected bitrate : 128 kBit/s
    Quality : High
    Add ID3 tag : No
    Command line compressor : C:Program FilesExact Audio CopyFlacflac.exe
    Additional command line options : -V -8 -T artist=%a -T title=%t -T album=%g -T date=%y -T tracknumber=%n -T genre=%m %s
    TOC of the extracted CD
    Track | Start | Length | Start sector | End sector
    ---------------------------------------------------------
    1 | 0:00.00 | 11:45.00 | 0 | 52874
    2 | 11:45.00 | 7:28.12 | 52875 | 86486
    3 | 19:13.12 | 7:43.08 | 86487 | 121219
    4 | 26:56.20 | 7:38.15 | 121220 | 155584
    5 | 34:34.35 | 6:31.22 | 155585 | 184931
    Track 1
    Filename C:Documents and SettingsHP_AdministratorDesktopGrant Green - Talkin\' About1 - Grant Green - Talkin\' About - Talkin\' about J.C..wav
    Pre-gap length 0:00:02.00
    Peak level 91.1 %
    Track quality 100.0 %
    Test CRC 180B7CF4
    Copy CRC 180B7CF4
    Accurately ripped (confidence 5) [53F4F382]
    Copy OK
    Track 2
    Filename C:Documents and SettingsHP_AdministratorDesktopGrant Green - Talkin\' About2 - Grant Green - Talkin\' About - People.wav
    Pre-gap length 0:00:01.26
    Peak level 82.3 %
    Track quality 100.0 %
    Test CRC 856C99B7
    Copy CRC 856C99B7
    Accurately ripped (confidence 5) [D588A163]
    Copy OK
    Track 3
    Filename C:Documents and SettingsHP_AdministratorDesktopGrant Green - Talkin\' About3 - Grant Green - Talkin\' About - Luny tune.wav
    Pre-gap length 0:00:01.29
    Peak level 87.3 %
    Track quality 100.0 %
    Test CRC 40301356
    Copy CRC 40301356
    Accurately ripped (confidence 5) [0FC34291]
    Copy OK
    Track 4
    Filename C:Documents and SettingsHP_AdministratorDesktopGrant Green - Talkin\' About4 - Grant Green - Talkin\' About - You don\'t know what love is.wav
    Pre-gap length 0:00:01.66
    Peak level 74.7 %
    Track quality 100.0 %
    Test CRC 6CD0C548
    Copy CRC 6CD0C548
    Accurately ripped (confidence 5) [2C6FAFCF]
    Copy OK
    Track 5
    Filename C:Documents and SettingsHP_AdministratorDesktopGrant Green - Talkin\' About5 - Grant Green - Talkin\' About - I\'m an old cowhand (From the Rio Grande).wav
    Peak level 86.0 %
    Track quality 100.0 %
    Test CRC 1221C7BC
    Copy CRC 1221C7BC
    Accurately ripped (confidence 5) [8BFFF9D9]
    Copy OK
    All tracks accurately ripped
    No errors occurred
    End of status report
    Код:

    REM GENRE Jazz
    REM DATE 1964
    REM DISCID 3B09A105
    REM COMMENT ExactAudioCopy v0.99pb5
    PERFORMER Grant Green
    TITLE Talkin\' About
    FILE 01 - Talkin\' About J.C..wav WAVE
    TRACK 01 AUDIO
    TITLE Talkin\' About J.C.
    PERFORMER Grant Green
    INDEX 01 00:00:00
    TRACK 02 AUDIO
    TITLE People
    PERFORMER Grant Green
    INDEX 00 11:43:55
    FILE 02 - People.wav WAVE
    INDEX 01 00:00:00
    TRACK 03 AUDIO
    TITLE Luny Tune
    PERFORMER Grant Green
    INDEX 00 07:26:65
    FILE 03 - Luny Tune.wav WAVE
    INDEX 01 00:00:00
    TRACK 04 AUDIO
    TITLE You Don\'t Know What Love Is
    PERFORMER Grant Green
    INDEX 00 07:41:33
    FILE 04 - You Don\'t Know What Love Is.wav WAVE
    INDEX 01 00:00:00
    FILE 05 - I\'m an Old Cowhand.wav WAVE
    TRACK 05 AUDIO
    TITLE I\'m an Old Cowhand
    PERFORMER Grant Green
    INDEX 01 00:00:00
    Код:

    -----------------------
    DON\'T MODIFY THIS FILE
    -----------------------
    PERFORMER: auCDtect Task Manager, ver. 1.6.0 RC1 build 1.6.0.1
    Copyright (c) 2008-2010 y-soft. All rights reserved
    http://y-soft.org
    ANALYZER: auCDtect: CD records authenticity detector, version 0.8.2
    Copyright (c) 2004 Oleg Berngardt. All rights reserved.
    Copyright (c) 2004 Alexander Djourik. All rights reserved.
    FILE: 05 - I\'m an Old Cowhand.flac
    Size: 37888532 Hash: D6C89DD8C8DD3AC81024F5812D56885E Accuracy: -m0
    Conclusion: CDDA 100%
    Signature: BDC497FD8C84CB6B595ADF15884EB2DF464B3F3F
    FILE: 04 - You Don\'t Know What Love Is.flac
    Size: 35766816 Hash: 838ED80F3BE39283F42E13C5E0FB9B50 Accuracy: -m0
    Conclusion: CDDA 58%
    Signature: 4585E379D27170E28FA93F4F585041BDBB6C62EB
    FILE: 03 - Luny Tune.flac
    Size: 44280891 Hash: 1BC97A1757F9B8BE711F56D42923A1C0 Accuracy: -m0
    Conclusion: CDDA 100%
    Signature: 565FDCC187345F9678B4DC9EF17F045DDE04229E
    FILE: 02 - People.flac
    Size: 36178355 Hash: 711E66FCE9AFAC33914F35CBE58B092F Accuracy: -m0
    Conclusion: CDDA 100%
    Signature: 487F21AE28DF6D29A9F9465D01A092EA64F928E5
    FILE: 01 - Talkin\' About J.C..flac
    Size: 74391664 Hash: E922CEC04186355D9CF6BE2747B5CF5E Accuracy: -m0
    Conclusion: CDDA 100%
    Signature: CF5DDBCCA9D393EB835B8AED00897C6DF02DE879


    Grant Green - Talkin About (1964) 1999, Blue Note Records[FLAC|Lossless|tracks + .cue] <Hard Bop, Guitar Jazz>
    Рейтинг →
     (голосов: 1, оценка 5/5, голосовать можно 1 раз )

    Другие торренты по теме:

  • Grant Green - Visions (1971) / 2009, EMI Music / [FLAC|tracks+.cue]<Hard Bop, Soul Jazz> скачать через торрент бесплатно
  • Grant Green - Grantstand (1961) 2003, Blue Note[FLAC|tracks+.cue] <Hard Bop> скачать через торрент бесплатно
  • Grant Green & Baby Face Willette - Trio / Quartet: Complete Recordings (1961) 2CD, 2014, American Jazz Classics[FLAC|Lossless|tracks + .cue] <Hard Bop, Soul Jazz>


    • Комментарии (0):

      Информация

      Информация

        Посетители, находящиеся в группе Гости, не могут оставлять комментарии в данной новости.

        ↓ Меню




        ↓ Опрос

        Вы добавили сайт в закладки?
        Да
        Нет


        Top 10 за месяц (Музыка)