.
Авторизация | Регистрация
Хочешь лучшие торренты? Добавь свой email!
Добавить

Торрент скачать бесплатно

  • support: webmaster@btracker.club
» » Grant Miller - Greatest Hits & Remixes (2015) 2CD [FLAC|Lossless|image + .cue]<Euro-Disco, Italo-Disco> скачать через торрент бесплатно


    Grant Miller - Greatest Hits & Remixes (2015) 2CD [FLAC|Lossless|image + .cue]<Euro-Disco, Italo-Disco> скачать через торрент бесплатно

    Опубликовал: fregat | Дата: 13-12-2015, 04:06 | .torrent скачали: 75

    Grant Miller - Greatest Hits & Remixes (2015) 2CD [FLAC|Lossless|image + .cue]&ltEuro-Disco, Italo-Disco> скачать через торрент бесплатноГод: 2015
    Жанр: Euro-Disco, Italo-Disco
    Издание: ZYX Music - ZYX 21092-2
    Продолжительность: 01: 54: 11
    Кодек: FLAC
    Битрейт: Lossless
    Тип раздачи: image + .cue

    CD1


    Треклист

    01. Colder Than Ice (7\' Version) 04: 11
    02. Wings Of Love (7\' Version) 03: 24
    03. Doctor For My Heart (7\' Version) 03: 22
    04. Lost In Paradise (7\' Version) 03: 56
    05. (Find My) Tracks In The Snow (7\' Version) 03: 27
    06. California Train (7\' Version) 03: 11
    07. Stay One More Day (7\' Version) 03: 47
    08. Red For Love (7\' Version) 03: 33
    09. Missing You (7\' Version) 04: 12
    10. Break Away (7\' Version) 03: 58
    11. Stranger In My Life (Radio Version) 03: 35
    12. I\'m Alive Tonight (7\' Version) 03: 36
    13. Sail Away (7\' Version) 03: 50
    14. In The Rain Again (7\' Version) 03: 21
    Продолжительность - 00: 51: 30
    Код:

    Exact Audio Copy V1.1 from 23. June 2015
    Отчёт EAC об извлечении, выполненном 9. декабря 2015, 20:52
    Grant Miller/Greatest Hits Remixes
    Дисковод: HL-DT-STDVDRAM GH24NSC0 Adapter: 2 ID: 0
    Режим чтения : Достоверность
    Использование точного потока : Да
    Отключение кэша аудио : Да
    Использование указателей C2 : Нет
    Коррекция смещения при чтении : 6
    Способность читать области Lead-in и Lead-out : Нет
    Заполнение пропущенных сэмплов тишиной : Да
    Удаление блоков с тишиной в начале и конце : Нет
    При вычислениях CRC использовались нулевые сэмплы : Да
    Интерфейс : Встроенный Win32-интерфейс для Win NT/2000
    Выходной формат : Пользовательский кодировщик
    Выбранный битрейт : 128 kBit/s
    Качество : Высокий
    Добавление ID3-тега : Нет
    Утилита сжатия : C:Program Files (x86)Exact Audio CopyFlacflac.exe
    Дополнительные параметры : -V -8 -T Date=%year% -T Genre=%genre% %source%
    TOC извлечённого CD
    Трек | Старт | Длительность | Начальный сектор | Конечный сектор
    ---------------------------------------------------------------------
    1 | 0:00.00 | 4:11.39 | 0 | 18863
    2 | 4:11.39 | 3:24.28 | 18864 | 34191
    3 | 7:35.67 | 3:22.23 | 34192 | 49364
    4 | 10:58.15 | 3:56.55 | 49365 | 67119
    5 | 14:54.70 | 3:27.17 | 67120 | 82661
    6 | 18:22.12 | 3:11.28 | 82662 | 97014
    7 | 21:33.40 | 3:47.33 | 97015 | 114072
    8 | 25:20.73 | 3:33.34 | 114073 | 130081
    9 | 28:54.32 | 4:12.68 | 130082 | 149049
    10 | 33:07.25 | 3:58.09 | 149050 | 166908
    11 | 37:05.34 | 3:35.54 | 166909 | 183087
    12 | 40:41.13 | 3:36.02 | 183088 | 199289
    13 | 44:17.15 | 3:50.36 | 199290 | 216575
    14 | 48:07.51 | 3:21.66 | 216576 | 231716
    Характеристики диапазона извлечения и сообщения об ошибках
    Выбранный диапазон
    Имя файла M:Grant Miller - Greatest Hits Remixes CD1.wav
    Пиковый уровень 96.6 %
    Скорость извлечения 6.7 X
    Качество диапазона 99.9 %
    CRC теста 6F32F679
    CRC копии 6F32F679
    Копирование... OK
    Ошибок не произошло
    AccurateRip: сводка
    Трек 1 отсутствует в базе данных
    Трек 2 отсутствует в базе данных
    Трек 3 отсутствует в базе данных
    Трек 4 отсутствует в базе данных
    Трек 5 отсутствует в базе данных
    Трек 6 отсутствует в базе данных
    Трек 7 отсутствует в базе данных
    Трек 8 отсутствует в базе данных
    Трек 9 отсутствует в базе данных
    Трек 10 отсутствует в базе данных
    Трек 11 отсутствует в базе данных
    Трек 12 отсутствует в базе данных
    Трек 13 отсутствует в базе данных
    Трек 14 отсутствует в базе данных
    Ни одного трека нет в базе AccurateRip
    Конец отчёта
    ---- CUETools DB Plugin V2.1.6
    [CTDB TOCID: tp_ngGaUX8ga_NyyffMTMM0zuZY-] found
    Submit result: tp_ngGaUX8ga_NyyffMTMM0zuZY- has been confirmed
    Track | CTDB Status
    1 | (1/1) Accurately ripped
    2 | (1/1) Accurately ripped
    3 | (1/1) Accurately ripped
    4 | (1/1) Accurately ripped
    5 | (1/1) Accurately ripped
    6 | (1/1) Accurately ripped
    7 | (1/1) Accurately ripped
    8 | (1/1) Accurately ripped
    9 | (1/1) Accurately ripped
    10 | (1/1) Accurately ripped
    11 | (1/1) Accurately ripped
    12 | (1/1) Accurately ripped
    13 | (1/1) Accurately ripped
    14 | (1/1) Accurately ripped
    ==== Контрольная сумма отчёта 603B24EBB39331A53837577D96F8F279A7619B202BA597D46A9F7D170E1B71DC ====
    Код:

    -----------------------
    DON\'T MODIFY THIS FILE
    -----------------------
    PERFORMER: auCDtect Task Manager, ver. 1.6.0 RC1 build 1.6.0.1
    Copyright (c) 2008-2010 y-soft. All rights reserved
    http://y-soft.org
    ANALYZER: auCDtect: CD records authenticity detector, version 0.8.2
    Copyright (c) 2004 Oleg Berngardt. All rights reserved.
    Copyright (c) 2004 Alexander Djourik. All rights reserved.
    FILE: Grant Miller - Greatest Hits Remixes CD1.flac
    Size: 409444631 Hash: 20BD717CCE6828F40E376E33A3F03213 Accuracy: -m0
    Conclusion: CDDA 100%
    Signature: 0F1D381BB505E2EEB5E026B144AE5E5B2DB169F2



    Grant Miller - Greatest Hits & Remixes (2015) 2CD [FLAC|Lossless|image + .cue]<Euro-Disco, Italo-Disco>
    Рейтинг →
     (голосов: 1, оценка 4/5, голосовать можно 1 раз )

    Другие торренты по теме:

  • Grant Allen | Beginning Android 4 (2012) [PDF, FB2, DJVU, TXT, EPUB]
  • Grant Green - Visions (1971) / 2009, EMI Music / [FLAC|tracks+.cue]<Hard Bop, Soul Jazz> скачать через торрент бесплатно
  • VA - Anjunadeep 07 (Mixed by Jody Wisternoff & James Grant) (2015) [MP3|320 кб / с]<Deep House, Tech House, Progressive House> скачать через торрент бесплатно
  • VA - Anjunadeep 07 (Mixed by Jody Wisternoff & James Grant) (2015) [FLAC|Lossless|tracks + .cue] <Electronic, Deep House> скачать через торрент бесплатно
  • Grant Green - Grantstand (1961) 2003, Blue Note[FLAC|tracks+.cue] <Hard Bop> скачать через торрент бесплатно
  • Grant Green - Talkin About (1964) 1999, Blue Note Records[FLAC|Lossless|tracks + .cue] <Hard Bop, Guitar Jazz>
  • Tom Grant - Mystified (1976) Remaster, 2015, Solid Records[FLAC|Lossless|tracks + .cue] <Smooth Jazz, Piano Jazz>
  • Amy Grant - House Of Love (1994) [APE|Lossless|image + .cue] <Pop, Europop>


    • Комментарии (0):

      Информация

      Информация

        Посетители, находящиеся в группе Гости, не могут оставлять комментарии в данной новости.

        ↓ Меню




        ↓ Опрос

        Вы добавили сайт в закладки?
        Да
        Нет


        Top 10 за месяц (Музыка)