.
Авторизация | Регистрация
Хочешь лучшие торренты? Добавь свой email!
Добавить

Торрент скачать бесплатно

  • support: webmaster@btracker.club
» » Andreas Vollenweider - Down to the Moon (1986) [FLAC|Lossless|tracks + .cue] <New Age, Instrumental> торрент скачать бесплатно


    Andreas Vollenweider - Down to the Moon (1986) [FLAC|Lossless|tracks + .cue] <New Age, Instrumental> торрент скачать бесплатно

    Опубликовал: fregat | Дата: 4-01-2019, 05:00 | .torrent скачали: 1

    Andreas Vollenweider - Down to the Moon (1986) [FLAC|Lossless|tracks + .cue] &ltNew Age, Instrumental>Жанр: New Age, Instrumental
    Издание: Columbia Records
    Продолжительность: 00: 36: 28
    Кодек: FLAC
    Битрейт: Lossless
    Тип рипа: tracks + .cue

    Треклист

    01. Down to the Moon 02: 27
    02. Moon Dance 04: 10
    03. Steam Forest 04: 59
    04. Water Moon 02: 15
    05. Night Fire Dance 04: 58
    06. Quiet Observer 02: 44
    07. Silver Wheel 03: 58
    08. Drown in Pale Light 02: 14
    09. The Secret, the Candle, and Love 03: 43
    10. Hush - Patience at Bamboo Forest 00: 21
    11. Three Silver Ladies Dance 02: 34
    12. La Lune et l\'Enfant 02: 05

    Exact Audio Copy V1.0 beta 3 from 29. August 2011
    EAC extraction logfile from 13. April 2015, 23: 53
    Andreas Vollenweider/Down to the Moon
    Used drive : Optiarc DVD RW AD-7260S Adapter: 0 ID: 2
    Read mode : Secure
    Utilize accurate stream : Yes
    Defeat audio cache : Yes
    Make use of C2 pointers : No
    Read offset correction : 48
    Overread into Lead-In and Lead-Out : No
    Fill up missing offset samples with silence : Yes
    Delete leading and trailing silent blocks : No
    Null samples used in CRC calculations : Yes
    Used interface : Native Win32 interface for Win NT 2000
    Gap handling : Appended to previous track
    Used output format : User Defined Encoder
    Selected bitrate : 896 kBit/s
    Quality : High
    Add ID3 tag : No
    Command line compressor : C: Program Files (x86)Exact Audio CopyFlacflac.exe
    Additional command line options : -8 -V -T ARTIST=%artist% -T TITLE=%title% -T ALBUM=%albumtitle% -T DATE=%year% -T TRACKNUMBER=%tracknr% -T TOTALTRACKS=%numtracks% -T GENRE=%genre% -T ALBUMARTIST=%albumartist% -T ALBUM ARTIST=%albumartist% -T COMMENT=EAC Secure Mode, Test Copy, AccurateRip, FLAC -8 %source%
    TOC of the extracted CD
    Track | Start | Length | Start sector | End sector
    ---------------------------------------------------------
    1 | 0: 00.00 | 2: 26.42 | 0 | 10991
    2 | 2: 26.42 | 4: 10.08 | 10992 | 29749
    3 | 6: 36.50 | 4: 58.65 | 29750 | 52164
    4 | 11: 35.40 | 2: 15.32 | 52165 | 62321
    5 | 13: 50.72 | 4: 58.13 | 62322 | 84684
    6 | 18: 49.10 | 2: 44.37 | 84685 | 97021
    7 | 21: 33.47 | 3: 57.58 | 97022 | 114854
    8 | 25: 31.30 | 2: 13.65 | 114855 | 124894
    9 | 27: 45.20 | 3: 43.07 | 124895 | 141626
    10 | 31: 28.27 | 0: 20.55 | 141627 | 143181
    11 | 31: 49.07 | 2: 34.03 | 143182 | 154734
    12 | 34: 23.10 | 2: 04.65 | 154735 | 164099
    Track 1
    Filename D: NagrywanieAndreas Vollenweider - Down to the Moon (1986) FLAC (Columbia 485 165 2)1 - Down to the Moon.wav
    Pre-gap length 0: 00: 02.00
    Peak level 95.0 %
    Extraction speed 2.1 X
    Track quality 100.0 %
    Test CRC F8E06AAC
    Copy CRC F8E06AAC
    Accurately ripped (confidence 6) 0E83C759 (AR v2)
    Copy OK
    Track 2
    Filename D: NagrywanieAndreas Vollenweider - Down to the Moon (1986) FLAC (Columbia 485 165 2)2 - Moon Dance.wav
    Peak level 98.0 %
    Extraction speed 2.5 X
    Track quality 100.0 %
    Test CRC 40F5CD48
    Copy CRC 40F5CD48
    Accurately ripped (confidence 5) EB01FBD8 (AR v2)
    Copy OK
    Track 3
    Filename D: NagrywanieAndreas Vollenweider - Down to the Moon (1986) FLAC (Columbia 485 165 2)3 - Steam Forest.wav
    Peak level 98.0 %
    Extraction speed 2.8 X
    Track quality 100.0 %
    Test CRC 68DD87B5
    Copy CRC 68DD87B5
    Accurately ripped (confidence 6) B10F94BD (AR v2)
    Copy OK
    Track 4
    Filename D: NagrywanieAndreas Vollenweider - Down to the Moon (1986) FLAC (Columbia 485 165 2)4 - Water Moon.wav
    Peak level 86.1 %
    Extraction speed 2.2 X
    Track quality 99.9 %
    Test CRC 3C4621AC
    Copy CRC 3C4621AC
    Accurately ripped (confidence 5) 3724D3ED (AR v2)
    Copy OK
    Track 5
    Filename D: NagrywanieAndreas Vollenweider - Down to the Moon (1986) FLAC (Columbia 485 165 2)5 - Night Fire Dance.wav
    Peak level 98.0 %
    Extraction speed 3.2 X
    Track quality 100.0 %
    Test CRC 126C9CCF
    Copy CRC 126C9CCF
    Accurately ripped (confidence 5) F38CE9FC (AR v2)
    Copy OK
    Track 6
    Filename D: NagrywanieAndreas Vollenweider - Down to the Moon (1986) FLAC (Columbia 485 165 2)6 - Quiet Observer.wav
    Peak level 96.8 %
    Extraction speed 3.1 X
    Track quality 100.0 %
    Test CRC F70B112D
    Copy CRC F70B112D
    Accurately ripped (confidence 5) B46A40A0 (AR v2)
    Copy OK
    Track 7
    Filename D: NagrywanieAndreas Vollenweider - Down to the Moon (1986) FLAC (Columbia 485 165 2)7 - Silver Wheel.wav
    Peak level 98.0 %
    Extraction speed 3.5 X
    Track quality 100.0 %
    Test CRC 6CA300B3
    Copy CRC 6CA300B3
    Accurately ripped (confidence 6) 824D33F0 (AR v2)
    Copy OK
    Track 8
    Filename D: NagrywanieAndreas Vollenweider - Down to the Moon (1986) FLAC (Columbia 485 165 2)8 - Drown in Pale Light.wav
    Peak level 96.8 %
    Extraction speed 3.2 X
    Track quality 100.0 %
    Test CRC FC2BB7B1
    Copy CRC FC2BB7B1
    Accurately ripped (confidence 5) 4C39A6B2 (AR v2)
    Copy OK
    Track 9
    Filename D: NagrywanieAndreas Vollenweider - Down to the Moon (1986) FLAC (Columbia 485 165 2)9 - The Secret, the Candle, and Love.wav
    Peak level 98.0 %
    Extraction speed 3.2 X
    Track quality 99.9 %
    Test CRC 257210D1
    Copy CRC 257210D1
    Accurately ripped (confidence 5) 826585DC (AR v2)
    Copy OK
    Track 10
    Filename D: NagrywanieAndreas Vollenweider - Down to the Moon (1986) FLAC (Columbia 485 165 2)10 - Hush - Patience at Bamboo Forest.wav
    Peak level 52.2 %
    Extraction speed 1.5 X
    Track quality 100.0 %
    Test CRC 706CEA2C
    Copy CRC 706CEA2C
    Accurately ripped (confidence 5) 6887FD96 (AR v2)
    Copy OK
    Track 11
    Filename D: NagrywanieAndreas Vollenweider - Down to the Moon (1986) FLAC (Columbia 485 165 2)11 - Three Silver Ladies Dance.wav
    Peak level 98.0 %
    Extraction speed 3.0 X
    Track quality 99.9 %
    Test CRC 6099284F
    Copy CRC 6099284F
    Accurately ripped (confidence 5) 185FDBD5 (AR v2)
    Copy OK
    Track 12
    Filename D: NagrywanieAndreas Vollenweider - Down to the Moon (1986) FLAC (Columbia 485 165 2)12 - La lune et l\'enfant.wav
    Peak level 98.0 %
    Extraction speed 2.9 X
    Track quality 99.9 %
    Test CRC A37ACE14
    Copy CRC A37ACE14
    Accurately ripped (confidence 5) 9CED3730 (AR v2)
    Copy OK
    All tracks accurately ripped
    No errors occurred
    End of status report
    ==== Log checksum 0E6ACDF1A838DDFC45483BD6BF4A9907F2E62B2B84127E1D2E09DEFC2BA0DF14 ====
    Andreas Vollenweider
    Время раздачи: 24/7 (до появления первых 3-5 скачавших)


    Andreas Vollenweider - Down to the Moon (1986) [FLAC|Lossless|tracks + .cue] <New Age, Instrumental>
    Рейтинг →
     (голосов: 1, оценка 3/5, голосовать можно 1 раз )

    Другие торренты по теме:

  • Andreas Vollenweider - White Winds (1984) [FLAC|Lossless|image + .cue] <Electronic>
  • Andreas Vollenweider - ...Behind The Gardens - Behind The Wall - Under The Tree... (1981) released on CD 1984 [FLAC|Lossless|tracks + .cue] <Electronic, Ambient>


    • Комментарии (0):

      Информация

      Информация

        Посетители, находящиеся в группе Гости, не могут оставлять комментарии в данной новости.

        ↓ Меню




        ↓ Опрос

        Вы добавили сайт в закладки?
        Да
        Нет


        Top 10 за месяц (Музыка)