.
Авторизация | Регистрация
Хочешь лучшие торренты? Добавь свой email!
Добавить

Торрент скачать бесплатно

  • support: webmaster@btracker.club
» » Cholosus - Way Of Life (2019) [FLAC|Lossless|WEB-DL|tracks] <Ambient, Drone> торрент скачать бесплатно


    Cholosus - Way Of Life (2019) [FLAC|Lossless|WEB-DL|tracks] <Ambient, Drone> торрент скачать бесплатно

    Опубликовал: fregat | Дата: 4-01-2019, 05:00 | .torrent скачали: 0

    Cholosus - Way Of Life (2019) [FLAC|Lossless|WEB-DL|tracks] &ltAmbient, Drone>Жанр: Ambient, Drone
    Издание: Self-released
    Источник: ссылка
    Продолжительность: 01: 24: 50
    Кодек: FLAC
    Битрейт: Lossless|24Bit
    Тип рипа: tracks

    Треклист

    01. The Lord Will Make It Happen (06: 06)
    02. Aeris (12: 48)
    03. Winter (09: 26)
    04. Loner (12: 08)
    05. Shining Light (06: 13)
    06. Promises (14: 04)
    07. Moment (07: 07)
    08. The Distance That You Make (07: 39)
    09. Voices Within (09: 19)

    foobar2000 1.4/Dynamic Range Meter 1.1.1
    log date: 2019-01-03 19: 40: 55
    --------------------------------------------------------------------------------
    Analyzed: Cholosus/Way Of Life
    --------------------------------------------------------------------------------
    DR Peak RMS Duration Track
    --------------------------------------------------------------------------------
    DR9 -0.02 dB -12.70 dB 6: 06 ?-The Lord Will Make It Happen
    DR9 0.00 dB -10.69 dB 12: 48 ?-Aeris
    DR9 -0.01 dB -10.99 dB 9: 26 ?-Winter
    DR10 0.00 dB -11.72 dB 12: 08 ?-Loner
    DR9 -0.01 dB -11.31 dB 6: 13 ?-Shining Light
    DR10 -0.24 dB -11.31 dB 14: 04 ?-Promises
    DR8 -1.01 dB -11.43 dB 7: 07 ?-Moment
    DR10 -0.02 dB -12.06 dB 7: 39 ?-The Distance That You Make
    DR9 -0.01 dB -11.27 dB 9: 19 ?-Voices Within
    --------------------------------------------------------------------------------
    Number of tracks: 9
    Official DR value: DR9
    Samplerate: 48000 Hz
    Channels: 2
    Bits per sample: 24
    Bitrate: 1463 kbps
    Codec: FLAC
    ================================================================================
    Время раздачи: 12/7


    Cholosus - Way Of Life (2019) [FLAC|Lossless|WEB-DL|tracks] <Ambient, Drone>
    Рейтинг →
     (голосов: 1, оценка 5/5, голосовать можно 1 раз )

    Другие торренты по теме:



      Комментарии (0):

      Информация

      Информация

        Посетители, находящиеся в группе Гости, не могут оставлять комментарии в данной новости.

        ↓ Меню




        ↓ Опрос

        Вы добавили сайт в закладки?
        Да
        Нет


        Top 10 за месяц (Музыка)