.
Авторизация | Регистрация
Хочешь лучшие торренты? Добавь свой email!
Добавить

Торрент скачать бесплатно

  • support: webmaster@btracker.club
» » Donna the Buffalo - Dance in the Street (2018) [FLAC|Lossless|tracks + .cue] <Bluegrass, Alternative Country, Americana, Contemporary Folk> торрент скачать бесплатно


    Donna the Buffalo - Dance in the Street (2018) [FLAC|Lossless|tracks + .cue] <Bluegrass, Alternative Country, Americana, Contemporary Folk> торрент скачать бесплатно

    Опубликовал: fregat | Дата: 4-01-2019, 05:00 | .torrent скачали: 1

    Donna the Buffalo - Dance in the Street (2018) [FLAC|Lossless|tracks + .cue] &ltBluegrass, Alternative Country, Americana, Contemporary Folk>Жанр: Bluegrass, Alternative Country, Americana, Contemporary Folk
    Издание: Self-Released/CD-DTB-001
    Продолжительность: 00: 44: 38
    Кодек: FLAC
    Битрейт: Lossless
    Тип рипа: tracks + .cue

    Треклист

    01. Dance in the Street (04: 21)
    02. Motor (02: 44)
    03. Heaven the Earth (03: 47)
    04. Look Both Ways (03: 18)
    05. Across the Way (04: 21)
    06. Top Shelf (03: 23)
    07. The Good Stuff (03: 53)
    08. Holding on to Nothing (03: 11)
    09. If You Want to Live (03: 50)
    10. I Won\'t Be Looking Back (03: 05)
    11. Killing a Man (04: 18)
    12. I Believe (04: 29)

    Exact Audio Copy V1.3 from 2. September 2016
    EAC extraction logfile from 1. January 2019, 18: 17
    Donna the Buffalo/Dance in the Street
    Used drive : ATAPI iHAS124 W Adapter: 1 ID: 0
    Read mode : Secure
    Utilize accurate stream : Yes
    Defeat audio cache : Yes
    Make use of C2 pointers : No
    Read offset correction : 48
    Overread into Lead-In and Lead-Out : No
    Fill up missing offset samples with silence : Yes
    Delete leading and trailing silent blocks : No
    Null samples used in CRC calculations : Yes
    Used interface : Native Win32 interface for Win NT 2000
    Gap handling : Appended to previous track
    Used output format : User Defined Encoder
    Selected bitrate : 1024 kBit/s
    Quality : High
    Add ID3 tag : No
    Command line compressor : C: Program Files (x86)Exact Audio CopyFlacflac.exe
    Additional command line options : -8 -e -p -V -T ARTIST=%artist% -T TITLE=%title% -T ALBUM=%albumtitle% -T DATE=%year% -T TRACKNUMBER=%tracknr% -T GENRE=%genre% -T PERFORMER=%albuminterpret% -T COMPOSER=%composer% %haslyrics%--tag-from-file=LYRICS=%lyricsfile%%haslyrics% -T ALBUMARTIST=%albumartist% -T DISCNUMBER=%cdnumber% -T TOTALDISCS=%totalcds% -T TOTALTRACKS=%numtracks% -T COMMENT=%comment% %source% -o %dest%
    TOC of the extracted CD
    Track | Start | Length | Start sector | End sector
    ---------------------------------------------------------
    1 | 0: 00.00 | 4: 20.47 | 0 | 19546
    2 | 4: 20.47 | 2: 43.57 | 19547 | 31828
    3 | 7: 04.29 | 3: 46.59 | 31829 | 48837
    4 | 10: 51.13 | 3: 18.13 | 48838 | 63700
    5 | 14: 09.26 | 4: 20.67 | 63701 | 83267
    6 | 18: 30.18 | 3: 22.42 | 83268 | 98459
    7 | 21: 52.60 | 3: 52.66 | 98460 | 115925
    8 | 25: 45.51 | 3: 11.15 | 115926 | 130265
    9 | 28: 56.66 | 3: 50.15 | 130266 | 147530
    10 | 32: 47.06 | 3: 04.26 | 147531 | 161356
    11 | 35: 51.32 | 4: 17.31 | 161357 | 180662
    12 | 40: 08.63 | 4: 28.40 | 180663 | 200802
    Track 1
    Filename C: UsersUserMusicEAC RipsDonna the Buffalo - Dance in the Street (2018) - FLAC1 - Dance in the Street.wav
    Pre-gap length 0: 00: 02.00
    Peak level 99.0 %
    Extraction speed 3.3 X
    Track quality 99.9 %
    Test CRC F5405067
    Copy CRC F5405067
    Accurately ripped (confidence 2) 8B4C4BB8 (AR v2)
    Copy OK
    Track 2
    Filename C: UsersUserMusicEAC RipsDonna the Buffalo - Dance in the Street (2018) - FLAC2 - Motor.wav
    Pre-gap length 0: 00: 01.01
    Peak level 99.0 %
    Extraction speed 4.6 X
    Track quality 100.0 %
    Test CRC DF6F206F
    Copy CRC DF6F206F
    Accurately ripped (confidence 2) 9AA2B1DD (AR v2)
    Copy OK
    Track 3
    Filename C: UsersUserMusicEAC RipsDonna the Buffalo - Dance in the Street (2018) - FLAC3 - Heaven the Earth.wav
    Pre-gap length 0: 00: 01.13
    Peak level 99.0 %
    Extraction speed 5.2 X
    Track quality 100.0 %
    Test CRC D31E7CA2
    Copy CRC D31E7CA2
    Accurately ripped (confidence 2) 525128F3 (AR v2)
    Copy OK
    Track 4
    Filename C: UsersUserMusicEAC RipsDonna the Buffalo - Dance in the Street (2018) - FLAC4 - Look Both Ways.wav
    Pre-gap length 0: 00: 01.20
    Peak level 99.0 %
    Extraction speed 3.7 X
    Track quality 99.9 %
    Test CRC 6A7FBE19
    Copy CRC 6A7FBE19
    Accurately ripped (confidence 2) 9A9EE1E6 (AR v2)
    Copy OK
    Track 5
    Filename C: UsersUserMusicEAC RipsDonna the Buffalo - Dance in the Street (2018) - FLAC5 - Across the Way.wav
    Pre-gap length 0: 00: 01.12
    Peak level 98.8 %
    Extraction speed 6.1 X
    Track quality 100.0 %
    Test CRC 077BEC7A
    Copy CRC 077BEC7A
    Accurately ripped (confidence 2) BE6CEC02 (AR v2)
    Copy OK
    Track 6
    Filename C: UsersUserMusicEAC RipsDonna the Buffalo - Dance in the Street (2018) - FLAC6 - Top Shelf.wav
    Pre-gap length 0: 00: 01.09
    Peak level 98.8 %
    Extraction speed 6.2 X
    Track quality 100.0 %
    Test CRC D80293D3
    Copy CRC D80293D3
    Accurately ripped (confidence 2) 0D5DFD84 (AR v2)
    Copy OK
    Track 7
    Filename C: UsersUserMusicEAC RipsDonna the Buffalo - Dance in the Street (2018) - FLAC7 - The Good Stuff.wav
    Pre-gap length 0: 00: 01.01
    Peak level 100.0 %
    Extraction speed 6.6 X
    Track quality 100.0 %
    Test CRC 6CAA236C
    Copy CRC 6CAA236C
    Accurately ripped (confidence 2) DF4C8DE6 (AR v2)
    Copy OK
    Track 8
    Filename C: UsersUserMusicEAC RipsDonna the Buffalo - Dance in the Street (2018) - FLAC8 - Holding on to Nothing.wav
    Pre-gap length 0: 00: 01.01
    Peak level 98.8 %
    Extraction speed 4.4 X
    Track quality 99.9 %
    Test CRC A5602A61
    Copy CRC A5602A61
    Accurately ripped (confidence 2) 998BBF6D (AR v2)
    Copy OK
    Track 9
    Filename C: UsersUserMusicEAC RipsDonna the Buffalo - Dance in the Street (2018) - FLAC9 - If You Want To Live.wav
    Pre-gap length 0: 00: 01.29
    Peak level 98.8 %
    Extraction speed 7.2 X
    Track quality 100.0 %
    Test CRC 7F10A977
    Copy CRC 7F10A977
    Accurately ripped (confidence 2) 6D8B32CC (AR v2)
    Copy OK
    Track 10
    Filename C: UsersUserMusicEAC RipsDonna the Buffalo - Dance in the Street (2018) - FLAC10 - I Won\'t Be Looking Back.wav
    Pre-gap length 0: 00: 00.97
    Peak level 99.0 %
    Extraction speed 7.1 X
    Track quality 100.0 %
    Test CRC 9DBDB63F
    Copy CRC 9DBDB63F
    Accurately ripped (confidence 2) 8273FB79 (AR v2)
    Copy OK
    Track 11
    Filename C: UsersUserMusicEAC RipsDonna the Buffalo - Dance in the Street (2018) - FLAC11 - Killing a Man.wav
    Pre-gap length 0: 00: 01.06
    Peak level 99.0 %
    Extraction speed 7.7 X
    Track quality 100.0 %
    Test CRC A83E3C18
    Copy CRC A83E3C18
    Accurately ripped (confidence 2) 10B572CB (AR v2)
    Copy OK
    Track 12
    Filename C: UsersUserMusicEAC RipsDonna the Buffalo - Dance in the Street (2018) - FLAC12 - I Believe.wav
    Pre-gap length 0: 00: 01.16
    Peak level 99.0 %
    Extraction speed 7.9 X
    Track quality 100.0 %
    Test CRC 84EFAB96
    Copy CRC 84EFAB96
    Accurately ripped (confidence 2) C8063CE2 (AR v2)
    Copy OK
    All tracks accurately ripped
    No errors occurred
    End of status report
    ---- CUETools DB Plugin V2.1.6
    CTDB TOCID: Gf6nPcI5nrw6bdBJ99f9ugDsDhU- found
    Submit result: Gf6nPcI5nrw6bdBJ99f9ugDsDhU- has been confirmed
    Track | CTDB Status
    1 | (4/4) Accurately ripped
    2 | (4/4) Accurately ripped
    3 | (4/4) Accurately ripped
    4 | (4/4) Accurately ripped
    5 | (4/4) Accurately ripped
    6 | (4/4) Accurately ripped
    7 | (4/4) Accurately ripped
    8 | (4/4) Accurately ripped
    9 | (4/4) Accurately ripped
    10 | (4/4) Accurately ripped
    11 | (4/4) Accurately ripped
    12 | (4/4) Accurately ripped
    ==== Log checksum 5A46CD54A6D4C82AEC024CB06A8E0D6B5F9090EFC61EC058E7CA242D0845EF46 ====



    Поглощение/вытеснение
    Только с согласия релизера

    Pashketan


    Donna the Buffalo - Dance in the Street (2018) [FLAC|Lossless|tracks + .cue] <Bluegrass, Alternative Country, Americana, Contemporary Folk>
    Рейтинг →
     (голосов: 1, оценка 5/5, голосовать можно 1 раз )

    Другие торренты по теме:

  • Donna Summer - The Journey. The Very Best Of Donna Summer (2003) 2CD [MP3|320 Kbps] <Electronic, Synth-pop, Disco>
  • Donna Summer - Love to Love You Donna (2013) [FLAC|Lossless|tracks + .cue] <Electro, Disco>
  • Donna Summer - Endless Summer (Donna Summers Greatest Hits) (1994) [FLAC|Lossless|image + .cue] <Disco>
  • Вот так подружка / Una Donna per Amica (2014) HDRip [Звук с TS]
  • Galilei Donna - Storia di tre sorelle a caccia di un mistero | Галилей Донна: История трёх сестёр, охотящихся за тайной [2013, TV, 11 эп.] BDrip 1080p raw
  • Запах женщины / Profumo di donna (1974) DVDRip [H.264]
  • Donna Lewis - Brand New Day (2015) [MP3|320 кб / с]<Jazz, Dream Pop> скачать через торрент бесплатно
  • Donna Hightower - Take One! & Gee, Baby, Aint I Good To You (2009) [FLAC|tracks+.cue]<Jazz, Vocal Jazz> скачать через торрент бесплатно


    • Комментарии (0):

      Информация

      Информация

        Посетители, находящиеся в группе Гости, не могут оставлять комментарии в данной новости.

        ↓ Меню




        ↓ Опрос

        Вы добавили сайт в закладки?
        Да
        Нет


        Top 10 за месяц (Музыка)