.
Авторизация | Регистрация
Хочешь лучшие торренты? Добавь свой email!
Добавить

Торрент скачать бесплатно

  • support: webmaster@btracker.club
» » Oren Ambarchi - Grapes From The Estate (2004) Touch [FLAC|Lossless|tracks+.cue] <Glitch, Ambient, Minimal, Acoustic> торрент скачать бесплатно


    Oren Ambarchi - Grapes From The Estate (2004) Touch [FLAC|Lossless|tracks+.cue] <Glitch, Ambient, Minimal, Acoustic> торрент скачать бесплатно

    Опубликовал: fregat | Дата: 4-01-2019, 05:00 | .torrent скачали: 0

    Oren Ambarchi - Grapes From The Estate (2004) Touch [FLAC|Lossless|tracks+.cue] &ltGlitch, Ambient, Minimal, Acoustic>Год: 2004
    Жанр: Glitch, Ambient, Minimal, Acoustic
    Издание: Touch - TO: 61
    Продолжительность: 00: 55: 41
    Кодек: FLAC
    Битрейт: Lossless
    Тип рипа: tracks+.cue

    Треклист

    01. Corkscrew (09: 43)
    02. Girl With The Silver Eyes (09: 40)
    03. Remedios The Beauty (15: 37)
    04. Stars Aligned, Webs Spun (20: 41)

    X Lossless Decoder version 20110312 (130.0)
    XLD extraction logfile from 2011-03-16 15: 14: 54 -0700
    Oren Ambarchi/Grapes From The Estate
    Used drive : PIONEER DVD-RW DVR-K05 (revision Q523)
    Ripper mode : CDParanoia III 10.2
    Disable audio cache : OK for the drive with a cache less than 2750KiB
    Make use of C2 pointers : NO
    Read offset correction : 48
    Max retry count : 100
    Gap status : Analyzed, Appended
    TOC of the extracted CD
    Track | Start | Length | Start sector | End sector
    ---------------------------------------------------------
    1 | 00: 00: 00 | 09: 43: 25 | 0 | 43749
    2 | 09: 43: 25 | 09: 40: 35 | 43750 | 87284
    3 | 19: 23: 60 | 15: 37: 20 | 87285 | 157579
    4 | 35: 01: 05 | 20: 40: 72 | 157580 | 250651
    AccurateRip Summary
    Track 01 : OK (confidence 7)
    Track 02 : OK (confidence 7)
    Track 03 : OK (confidence 7)
    Track 04 : OK (confidence 6)
    -All tracks accurately ripped.
    All Tracks
    Album gain : -1.53 dB
    Peak : 0.994995
    Statistics
    Read error : 0
    Skipped (treated as error) : 0
    Edge jitter error (maybe fixed) : 0
    Atom jitter error (maybe fixed) : 0
    Drift error (maybe fixed) : 0
    Dropped bytes error (maybe fixed) : 0
    Duplicated bytes error (maybe fixed) : 0
    Track 01
    Filename : /Users/anja/Desktop/{What Uploads}/Oren Ambarchi - Grapes From The Estate (2004) FLAC/01 Corkscrew.flac
    Pre-gap length : 00: 02: 00
    Track gain : -1.87 dB
    Peak : 0.944092
    CRC32 hash (test run) : A068E189
    CRC32 hash : A068E189
    CRC32 hash (skip zero) : 2F367DD7
    AccurateRip signature : 3903B793
    -Accurately ripped! (confidence 7)
    Statistics
    Read error : 0
    Skipped (treated as error) : 0
    Edge jitter error (maybe fixed) : 0
    Atom jitter error (maybe fixed) : 0
    Drift error (maybe fixed) : 0
    Dropped bytes error (maybe fixed) : 0
    Duplicated bytes error (maybe fixed) : 0
    Inconsistency in error sectors : 0
    Track 02
    Filename : /Users/anja/Desktop/{What Uploads}/Oren Ambarchi - Grapes From The Estate (2004) FLAC/02 Girl With The Silver Eyes.flac
    Pre-gap length : 00: 02: 00
    Track gain : -1.12 dB
    Peak : 0.951294
    CRC32 hash (test run) : 299412B3
    CRC32 hash : 299412B3
    CRC32 hash (skip zero) : 4597B463
    AccurateRip signature : F8D062CD
    -Accurately ripped! (confidence 7)
    Statistics
    Read error : 0
    Skipped (treated as error) : 0
    Edge jitter error (maybe fixed) : 0
    Atom jitter error (maybe fixed) : 0
    Drift error (maybe fixed) : 0
    Dropped bytes error (maybe fixed) : 0
    Duplicated bytes error (maybe fixed) : 0
    Inconsistency in error sectors : 0
    Track 03
    Filename : /Users/anja/Desktop/{What Uploads}/Oren Ambarchi - Grapes From The Estate (2004) FLAC/03 Remedios The Beauty.flac
    Pre-gap length : 00: 02: 00
    Track gain : -0.59 dB
    Peak : 0.948578
    CRC32 hash (test run) : 3B2CBC3A
    CRC32 hash : 3B2CBC3A
    CRC32 hash (skip zero) : E49C649E
    AccurateRip signature : 64F52673
    -Accurately ripped! (confidence 7)
    Statistics
    Read error : 0
    Skipped (treated as error) : 0
    Edge jitter error (maybe fixed) : 0
    Atom jitter error (maybe fixed) : 0
    Drift error (maybe fixed) : 0
    Dropped bytes error (maybe fixed) : 0
    Duplicated bytes error (maybe fixed) : 0
    Inconsistency in error sectors : 0
    Track 04
    Filename : /Users/anja/Desktop/{What Uploads}/Oren Ambarchi - Grapes From The Estate (2004) FLAC/04 Stars Aligned, Webs Spun.flac
    Pre-gap length : 00: 06: 00
    Track gain : -1.41 dB
    Peak : 0.994995
    CRC32 hash (test run) : AF5094E8
    CRC32 hash : AF5094E8
    CRC32 hash (skip zero) : 39655EF9
    AccurateRip signature : 35A28E65
    -Accurately ripped! (confidence 6)
    Statistics
    Read error : 0
    Skipped (treated as error) : 0
    Edge jitter error (maybe fixed) : 0
    Atom jitter error (maybe fixed) : 0
    Drift error (maybe fixed) : 0
    Dropped bytes error (maybe fixed) : 0
    Duplicated bytes error (maybe fixed) : 0
    Inconsistency in error sectors : 0
    No errors occurred
    End of status report

    TITLE Grapes From The Estate
    PERFORMER Oren Ambarchi
    REM DATE 2004
    REM DISCNUMBER 1
    REM TOTALDISCS 1
    REM DISCID 270D0E04
    REM REPLAYGAIN_ALBUM_GAIN -1.53 dB
    REM REPLAYGAIN_ALBUM_PEAK 0.994995
    FILE 01 Corkscrew.wav WAVE
    TRACK 01 AUDIO
    TITLE Corkscrew
    REM REPLAYGAIN_TRACK_GAIN -1.87 dB
    REM REPLAYGAIN_TRACK_PEAK 0.944092
    INDEX 01 00: 00: 00
    TRACK 02 AUDIO
    TITLE Girl With The Silver Eyes
    REM REPLAYGAIN_TRACK_GAIN -1.12 dB
    REM REPLAYGAIN_TRACK_PEAK 0.951294
    INDEX 00 09: 41: 25
    FILE 02 Girl With The Silver Eyes.wav WAVE
    INDEX 01 00: 00: 00
    TRACK 03 AUDIO
    TITLE Remedios The Beauty
    REM REPLAYGAIN_TRACK_GAIN -0.59 dB
    REM REPLAYGAIN_TRACK_PEAK 0.948578
    INDEX 00 09: 38: 35
    FILE 03 Remedios The Beauty.wav WAVE
    INDEX 01 00: 00: 00
    TRACK 04 AUDIO
    TITLE Stars Aligned, Webs Spun
    REM REPLAYGAIN_TRACK_GAIN -1.41 dB
    REM REPLAYGAIN_TRACK_PEAK 0.994995
    INDEX 00 15: 31: 20
    FILE 04 Stars Aligned, Webs Spun.wav WAVE
    INDEX 01 00: 00: 00


    Oren Ambarchi - Grapes From The Estate (2004) Touch [FLAC|Lossless|tracks+.cue] <Glitch, Ambient, Minimal, Acoustic>
    Рейтинг →
     (голосов: 1, оценка 3/5, голосовать можно 1 раз )

    Другие торренты по теме:

  • Oren Lavie - Bedroom Crimes (2017) [FLAC|Lossless|tracks + .cue] <Folk, Indie, Singer-Songwriter>


    • Комментарии (0):

      Информация

      Информация

        Посетители, находящиеся в группе Гости, не могут оставлять комментарии в данной новости.

        ↓ Меню




        ↓ Опрос

        Вы добавили сайт в закладки?
        Да
        Нет


        Top 10 за месяц (Музыка)