.
Авторизация | Регистрация
Хочешь лучшие торренты? Добавь свой email!
Добавить

Торрент скачать бесплатно

  • support: webmaster@btracker.club
» » Yo La Tengo - Upside-Down (1992) EP [FLAC|Lossless|tracks + .cue] <Indie Rock> торрент скачать бесплатно


    Yo La Tengo - Upside-Down (1992) EP [FLAC|Lossless|tracks + .cue] <Indie Rock> торрент скачать бесплатно

    Опубликовал: fregat | Дата: 1-11-2018, 05:00 | .torrent скачали: 0

    Yo La Tengo - Upside-Down (1992) EP [FLAC|Lossless|tracks + .cue] &ltIndie Rock>Жанр: Indie Rock
    Издание: Alias - A026-D
    Продолжительность: 00: 34: 27
    Кодек: FLAC
    Битрейт: Lossless
    Тип рипа: tracks + .cue

    Треклист

    01. Upside-Down (2: 39)
    02. (The) Farmer's Daughter (2: 22)
    03. Out Of Control (2: 09)
    04. Upside-Down (One More Time) (2: 47)
    05. Sunsquashed (24: 30)
    YouTube

    Exact Audio Copy V1.3 from 2. September 2016
    EAC extraction logfile from 12. August 2017, 16: 42
    Yo La Tengo/Upside-Down
    Used drive : hp DVD-RAM GH60L Adapter: 1 ID: 0
    Read mode : Secure
    Utilize accurate stream : Yes
    Defeat audio cache : Yes
    Make use of C2 pointers : No
    Read offset correction : 667
    Overread into Lead-In and Lead-Out : No
    Fill up missing offset samples with silence : Yes
    Delete leading and trailing silent blocks : No
    Null samples used in CRC calculations : Yes
    Used interface : Native Win32 interface for Win NT 2000
    Gap handling : Appended to previous track
    Used output format : User Defined Encoder
    Selected bitrate : 1024 kBit/s
    Quality : High
    Add ID3 tag : No
    Command line compressor : C: Program Files (x86)Exact Audio CopyFLACFLAC.EXE
    Additional command line options : -6 -V -T ARTIST=%artist% -T TITLE=%title% -T ALBUM=%albumtitle% -T DATE=%year% -T TRACKNUMBER=%tracknr% -T GENRE=%genre% -T COMMENT=%comment% -T BAND=%albuminterpret% -T ALBUMARTIST=%albuminterpret% -T COMPOSER=%composer% %haslyrics%--tag-from-file=LYRICS=%lyricsfile%%haslyrics% -T DISCNUMBER=%cdnumber% -T TOTALDISCS=%totalcds% -T TOTALTRACKS=%numtracks% %hascover%--picture=%coverfile%%hascover% %source% -o %dest%
    TOC of the extracted CD
    Track | Start | Length | Start sector | End sector
    ---------------------------------------------------------
    1 | 0: 00.00 | 2: 39.15 | 0 | 11939
    2 | 2: 39.15 | 2: 22.27 | 11940 | 22616
    3 | 5: 01.42 | 2: 09.03 | 22617 | 32294
    4 | 7: 10.45 | 2: 46.40 | 32295 | 44784
    5 | 9: 57.10 | 24: 30.07 | 44785 | 155041
    Track 1
    Filename C: EACYo La Tengo - Upside-Down (1992) {A026-D CD} FLAC Upside-Down.wav
    Pre-gap length 0: 00: 02.00
    Peak level 99.8 %
    Extraction speed 1.7 X
    Track quality 100.0 %
    Test CRC FB77D3A4
    Copy CRC FB77D3A4
    Accurately ripped (confidence 4) 40FF4D0B (AR v2)
    Copy OK
    Track 2
    Filename C: EACYo La Tengo - Upside-Down (1992) {A026-D CD} FLAC (The) Farmer's Daughter.wav
    Pre-gap length 0: 00: 01.50
    Peak level 78.1 %
    Extraction speed 1.7 X
    Track quality 100.0 %
    Test CRC 294433B7
    Copy CRC 294433B7
    Accurately ripped (confidence 4) F759FA61 (AR v2)
    Copy OK
    Track 3
    Filename C: EACYo La Tengo - Upside-Down (1992) {A026-D CD} FLAC Out Of Control.wav
    Pre-gap length 0: 00: 01.76
    Peak level 100.0 %
    Extraction speed 1.7 X
    Track quality 100.0 %
    Test CRC 39D4413D
    Copy CRC 39D4413D
    Accurately ripped (confidence 4) 2F71A515 (AR v2)
    Copy OK
    Track 4
    Filename C: EACYo La Tengo - Upside-Down (1992) {A026-D CD} FLAC Upside-Down (One More Time).wav
    Pre-gap length 0: 00: 01.40
    Peak level 78.3 %
    Extraction speed 1.8 X
    Track quality 100.0 %
    Test CRC FBB3A162
    Copy CRC FBB3A162
    Accurately ripped (confidence 4) 43E24340 (AR v2)
    Copy OK
    Track 5
    Filename C: EACYo La Tengo - Upside-Down (1992) {A026-D CD} FLAC Sunsquashed.wav
    Pre-gap length 0: 00: 01.24
    Peak level 100.0 %
    Extraction speed 2.6 X
    Track quality 99.9 %
    Test CRC CE52AA74
    Copy CRC CE52AA74
    Accurately ripped (confidence 4) A7BA9C69 (AR v2)
    Copy OK
    All tracks accurately ripped
    No errors occurred
    End of status report
    ---- CUETools DB Plugin V2.1.6
    CTDB TOCID: lNcPAc0d2xORWj8qgVzokCezLhE- found
    Submit result: already submitted
    Track | CTDB Status
    1 | (10/10) Accurately ripped
    2 | (10/10) Accurately ripped
    3 | (10/10) Accurately ripped
    4 | (10/10) Accurately ripped
    5 | (10/10) Accurately ripped
    ==== Log checksum 015941745B579858B567B9BF2378844D71218D22FD2EA11F91DBF15C877C288F ====

    REM GENRE Indie
    REM DATE 1992
    REM DISCID 30081305
    REM COMMENT ExactAudioCopy v1.3
    CATALOG 0000000000000
    PERFORMER Yo La Tengo
    TITLE Upside-Down
    REM COMPOSER
    FILE 01 Upside-Down.wav WAVE
    TRACK 01 AUDIO
    TITLE Upside-Down
    PERFORMER Yo La Tengo
    REM COMPOSER
    INDEX 01 00: 00: 00
    TRACK 02 AUDIO
    TITLE (The) Farmer's Daughter
    PERFORMER Yo La Tengo
    REM COMPOSER
    INDEX 00 02: 37: 52
    FILE 02 (The) Farmer's Daughter.wav WAVE
    INDEX 01 00: 00: 00
    TRACK 03 AUDIO
    TITLE Out Of Control
    PERFORMER Yo La Tengo
    REM COMPOSER
    INDEX 00 02: 20: 45
    FILE 03 Out Of Control.wav WAVE
    INDEX 01 00: 00: 00
    TRACK 04 AUDIO
    TITLE Upside-Down (One More Time)
    PERFORMER Yo La Tengo
    REM COMPOSER
    INDEX 00 02: 07: 48
    FILE 04 Upside-Down (One More Time).wav WAVE
    INDEX 01 00: 00: 00
    TRACK 05 AUDIO
    TITLE Sunsquashed
    PERFORMER Yo La Tengo
    REM COMPOSER
    INDEX 00 02: 45: 22
    FILE 05 Sunsquashed.wav WAVE
    INDEX 01 00: 00: 00

    -----------------------
    DON'T MODIFY THIS FILE
    -----------------------
    PERFORMER: auCDtect Task Manager, ver. 1.6.0 RC1 build 1.6.0.1
    Copyright (c) 2008-2010 y-soft. All rights reserved
    http://y-soft.org
    ANALYZER: auCDtect: CD records authenticity detector, version 0.8.2
    Copyright (c) 2004 Oleg Berngardt. All rights reserved.
    Copyright (c) 2004 Alexander Djourik. All rights reserved.
    FILE: 01 Upside-Down.flac
    Size: 19358401 Hash: 0147BFB9923B436B98E623B723304568 Accuracy: -m0
    Conclusion: CDDA 100%
    Signature: 21459A9F62A24501C6C8F0F251A01DD993FDBF77
    FILE: 05 Sunsquashed.flac
    Size: 138736674 Hash: B3346D9F935178E0B3DD6603A101EC3E Accuracy: -m0
    Conclusion: CDDA 100%
    Signature: 13F3EB836F0209234B38B5038918D73B0F83EE77
    FILE: 04 Upside-Down (One More Time).flac
    Size: 17946401 Hash: FCC5CE2ECD5AF58BCCEAC3F17049BF7D Accuracy: -m0
    Conclusion: CDDA 100%
    Signature: 2614A761DD6FEE6B25406365FA89E74636723E02
    FILE: 03 Out Of Control.flac
    Size: 16558793 Hash: 03387C67B465D44678DF0BC70D3D9399 Accuracy: -m0
    Conclusion: CDDA 100%
    Signature: D34F5E58104A31C4240A211FAC3394FD36F7777B
    FILE: 02 (The) Farmer's Daughter.flac
    Size: 15136472 Hash: 60A43D9A75C72757FF0BAF016D1E2ADE Accuracy: -m0
    Conclusion: CDDA 100%
    Signature: 5F02E64BEAB07489526662A649311F7A3E9C79BC



    Поглощение/вытеснение
    Только с согласия релизера

    Pashketan


    Yo La Tengo - Upside-Down (1992) EP [FLAC|Lossless|tracks + .cue] <Indie Rock>
    Рейтинг →
     (голосов: 1, оценка 3/5, голосовать можно 1 раз )

    Другие торренты по теме:

  • Yo La Tengo - Extra Painful (2014) [FLAC|Lossless|tracks + .cue] <Indie Rock, Noise Pop, Experimental Rock>
  • Yo La Tengo - Theres a Riot Going On (2018) [FLAC|Lossless|tracks + .cue] <Indie Rock>


    • Комментарии (0):

      Информация

      Информация

        Посетители, находящиеся в группе Гости, не могут оставлять комментарии в данной новости.

        ↓ Меню




        ↓ Опрос

        Вы добавили сайт в закладки?
        Да
        Нет


        Top 10 за месяц (Музыка)