.
Авторизация | Регистрация
Хочешь лучшие торренты? Добавь свой email!
Добавить

Торрент скачать бесплатно

  • support: webmaster@btracker.club
» » Roxette - Look Sharp! (30th Anniversary Edition) (2018) 2CD, RE. RM. Parlophone [FLAC|Lossless|tracks + .cue] <Pop Rock> торрент скачать бесплатно


    Roxette - Look Sharp! (30th Anniversary Edition) (2018) 2CD, RE. RM. Parlophone [FLAC|Lossless|tracks + .cue] <Pop Rock> торрент скачать бесплатно

    Опубликовал: fregat | Дата: 31-10-2018, 05:00 | .torrent скачали: 1

    Roxette - Look Sharp! (30th Anniversary Edition) (2018) 2CD, RE. RM. Parlophone [FLAC|Lossless|tracks + .cue] &ltPop Rock>Продолжительность: 00: 54: 43

    Треклист

    01. The Look(3: 58)
    02. Dressed For Success(4: 10)
    03. Sleeping Single(4: 38)
    04. Paint(3: 30)
    05. Dance Away(3: 25)
    06. Cry(5: 19)
    07. Chances(4: 58)
    08. Dangerous(3: 49)
    09. Half A Woman, Half A Shadow(3: 35)
    10. View From A Hill(3: 40)
    11. (I Could Never) Give You Up(3: 58)
    12. Shadow Of A Doubt(4: 15)
    13. Listen To Your Heart(5: 28)

    Exact Audio Copy V1.0 beta 3 from 29. August 2011
    EAC extraction logfile from 26. October 2018, 21: 47
    Roxette/Look Sharp! (30th Anniversary Edition)
    Used drive : ASUS BW-16D1HT Adapter: 2 ID: 0
    Read mode : Secure
    Utilize accurate stream : Yes
    Defeat audio cache : Yes
    Make use of C2 pointers : No
    Read offset correction : 6
    Overread into Lead-In and Lead-Out : No
    Fill up missing offset samples with silence : Yes
    Delete leading and trailing silent blocks : No
    Null samples used in CRC calculations : Yes
    Used interface : Native Win32 interface for Win NT 2000
    Gap handling : Appended to previous track
    Used output format : User Defined Encoder
    Selected bitrate : 128 kBit/s
    Quality : High
    Add ID3 tag : No
    Command line compressor : C: Program Files (x86)Exact Audio CopyFlac lac.exe
    Additional command line options : -V -8 -T Genre=%genre% -T Artist=%artist% -T Title=%title% -T Album=%albumtitle% -T Date=%year% -T Tracknumber=%tracknr% -T Comment=%comment% %source%
    TOC of the extracted CD
    Track | Start | Length | Start sector | End sector
    ---------------------------------------------------------
    1 | 0: 00.00 | 3: 57.38 | 0 | 17812
    2 | 3: 57.38 | 4: 09.63 | 17813 | 36550
    3 | 8: 07.26 | 4: 37.55 | 36551 | 57380
    4 | 12: 45.06 | 3: 30.22 | 57381 | 73152
    5 | 16: 15.28 | 3: 24.73 | 73153 | 88525
    6 | 19: 40.26 | 5: 19.12 | 88526 | 112462
    7 | 24: 59.38 | 4: 57.68 | 112463 | 134805
    8 | 29: 57.31 | 3: 48.65 | 134806 | 151970
    9 | 33: 46.21 | 3: 35.20 | 151971 | 168115
    10 | 37: 21.41 | 3: 40.00 | 168116 | 184615
    11 | 41: 01.41 | 3: 57.57 | 184616 | 202447
    12 | 44: 59.23 | 4: 14.60 | 202448 | 221557
    13 | 49: 14.08 | 5: 28.37 | 221558 | 246194
    Track 1
    Filename D: Roxette - Look Sharp! (30th Anniversary Edition) (5054197024283) (2018)CD1 - Look Sharp! - The Look.wav
    Pre-gap length 0: 00: 02.00
    Peak level 82.3 %
    Extraction speed 4.5 X
    Track quality 100.0 %
    Test CRC 2713448C
    Copy CRC 2713448C
    Track not present in AccurateRip database
    Copy OK
    Track 2
    Filename D: Roxette - Look Sharp! (30th Anniversary Edition) (5054197024283) (2018)CD1 - Look Sharp! - Dressed For Success.wav
    Peak level 82.2 %
    Extraction speed 5.0 X
    Track quality 100.0 %
    Test CRC 0AA85FCF
    Copy CRC 0AA85FCF
    Track not present in AccurateRip database
    Copy OK
    Track 3
    Filename D: Roxette - Look Sharp! (30th Anniversary Edition) (5054197024283) (2018)CD1 - Look Sharp! - Sleeping Single.wav
    Peak level 82.3 %
    Extraction speed 5.6 X
    Track quality 100.0 %
    Test CRC 59E57D7E
    Copy CRC 59E57D7E
    Track not present in AccurateRip database
    Copy OK
    Track 4
    Filename D: Roxette - Look Sharp! (30th Anniversary Edition) (5054197024283) (2018)CD1 - Look Sharp! - Paint.wav
    Peak level 82.2 %
    Extraction speed 5.8 X
    Track quality 100.0 %
    Test CRC 2A2F82F1
    Copy CRC 2A2F82F1
    Track not present in AccurateRip database
    Copy OK
    Track 5
    Filename D: Roxette - Look Sharp! (30th Anniversary Edition) (5054197024283) (2018)CD1 - Look Sharp! - Dance Away.wav
    Peak level 82.2 %
    Extraction speed 6.1 X
    Track quality 100.0 %
    Test CRC 950D5A55
    Copy CRC 950D5A55
    Track not present in AccurateRip database
    Copy OK
    Track 6
    Filename D: Roxette - Look Sharp! (30th Anniversary Edition) (5054197024283) (2018)CD1 - Look Sharp! - Cry.wav
    Peak level 82.2 %
    Extraction speed 6.8 X
    Track quality 100.0 %
    Test CRC CCD71C77
    Copy CRC CCD71C77
    Track not present in AccurateRip database
    Copy OK
    Track 7
    Filename D: Roxette - Look Sharp! (30th Anniversary Edition) (5054197024283) (2018)CD1 - Look Sharp! - Chances.wav
    Peak level 82.5 %
    Extraction speed 7.2 X
    Track quality 100.0 %
    Test CRC B29BC351
    Copy CRC B29BC351
    Track not present in AccurateRip database
    Copy OK
    Track 8
    Filename D: Roxette - Look Sharp! (30th Anniversary Edition) (5054197024283) (2018)CD1 - Look Sharp!8 - Dangerous.wav
    Peak level 82.3 %
    Extraction speed 7.2 X
    Track quality 100.0 %
    Test CRC 512B752B
    Copy CRC 512B752B
    Track not present in AccurateRip database
    Copy OK
    Track 9
    Filename D: Roxette - Look Sharp! (30th Anniversary Edition) (5054197024283) (2018)CD1 - Look Sharp!9 - Half A Woman, Half A Shadow.wav
    Peak level 82.2 %
    Extraction speed 7.4 X
    Track quality 100.0 %
    Test CRC AF512112
    Copy CRC AF512112
    Track not present in AccurateRip database
    Copy OK
    Track 10
    Filename D: Roxette - Look Sharp! (30th Anniversary Edition) (5054197024283) (2018)CD1 - Look Sharp! - View From A Hill.wav
    Peak level 82.3 %
    Extraction speed 7.6 X
    Track quality 100.0 %
    Test CRC D29E480A
    Copy CRC D29E480A
    Track not present in AccurateRip database
    Copy OK
    Track 11
    Filename D: Roxette - Look Sharp! (30th Anniversary Edition) (5054197024283) (2018)CD1 - Look Sharp! - (I Could Never) Give You Up.wav
    Peak level 82.3 %
    Extraction speed 8.0 X
    Track quality 100.0 %
    Test CRC B25B8659
    Copy CRC B25B8659
    Track not present in AccurateRip database
    Copy OK
    Track 12
    Filename D: Roxette - Look Sharp! (30th Anniversary Edition) (5054197024283) (2018)CD1 - Look Sharp! - Shadow Of A Doubt.wav
    Peak level 82.3 %
    Extraction speed 8.3 X
    Track quality 100.0 %
    Test CRC 911784B5
    Copy CRC 911784B5
    Track not present in AccurateRip database
    Copy OK
    Track 13
    Filename D: Roxette - Look Sharp! (30th Anniversary Edition) (5054197024283) (2018)CD1 - Look Sharp! - Listen To Your Heart.wav
    Peak level 82.2 %
    Extraction speed 8.8 X
    Track quality 100.0 %
    Test CRC 09DEA039
    Copy CRC 09DEA039
    Track not present in AccurateRip database
    Copy OK
    None of the tracks are present in the AccurateRip database
    No errors occurred
    End of status report
    ==== Log checksum FACF3BC3D1E250CAE8B431DECADC052D8AFD754F09E6B448D108514567F41242 ====

    REM GENRE Rock
    REM DATE 2018
    REM DISCID C30CD20D
    REM COMMENT ExactAudioCopy v1.0b3
    PERFORMER Roxette
    TITLE Look Sharp! (30th Anniversary Edition)
    FILE 01 - The Look.wav WAVE
    TRACK 01 AUDIO
    TITLE The Look
    PERFORMER Roxette
    ISRC SEAME8878010
    INDEX 01 00: 00: 00
    FILE 02 - Dressed For Success.wav WAVE
    TRACK 02 AUDIO
    TITLE Dressed For Success
    PERFORMER Roxette
    ISRC SEAME8878020
    INDEX 01 00: 00: 00
    FILE 03 - Sleeping Single.wav WAVE
    TRACK 03 AUDIO
    TITLE Sleeping Single
    PERFORMER Roxette
    ISRC SEAME8878030
    INDEX 01 00: 00: 00
    FILE 04 - Paint.wav WAVE
    TRACK 04 AUDIO
    TITLE Paint
    PERFORMER Roxette
    ISRC SEAME8878040
    INDEX 01 00: 00: 00
    FILE 05 - Dance Away.wav WAVE
    TRACK 05 AUDIO
    TITLE Dance Away
    PERFORMER Roxette
    ISRC SEAME8878050
    INDEX 01 00: 00: 00
    FILE 06 - Cry.wav WAVE
    TRACK 06 AUDIO
    TITLE Cry
    PERFORMER Roxette
    ISRC SEAME8878060
    INDEX 01 00: 00: 00
    FILE 07 - Chances.wav WAVE
    TRACK 07 AUDIO
    TITLE Chances
    PERFORMER Roxette
    ISRC SEAME8878070
    INDEX 01 00: 00: 00
    FILE 08 - Dangerous.wav WAVE
    TRACK 08 AUDIO
    TITLE Dangerous
    PERFORMER Roxette
    ISRC SEAME8878080
    INDEX 01 00: 00: 00
    FILE 09 - Half A Woman, Half A Shadow.wav WAVE
    TRACK 09 AUDIO
    TITLE Half A Woman, Half A Shadow
    PERFORMER Roxette
    ISRC SEAME8878090
    INDEX 01 00: 00: 00
    FILE 10 - View From A Hill.wav WAVE
    TRACK 10 AUDIO
    TITLE View From A Hill
    PERFORMER Roxette
    ISRC SEAME8878100
    INDEX 01 00: 00: 00
    FILE 11 - (I Could Never) Give You Up.wav WAVE
    TRACK 11 AUDIO
    TITLE (I Could Never) Give You Up
    PERFORMER Roxette
    ISRC SEAME8878110
    INDEX 01 00: 00: 00
    FILE 12 - Shadow Of A Doubt.wav WAVE
    TRACK 12 AUDIO
    TITLE Shadow Of A Doubt
    PERFORMER Roxette
    ISRC SEAME8878120
    INDEX 01 00: 00: 00
    FILE 13 - Listen To Your Heart.wav WAVE
    TRACK 13 AUDIO
    TITLE Listen To Your Heart
    PERFORMER Roxette
    ISRC SEAME8878130
    INDEX 01 00: 00: 00

    -----------------------
    DON'T MODIFY THIS FILE
    -----------------------
    PERFORMER: auCDtect Task Manager, ver. 1.6.0 RC1 build 1.6.0.1
    Copyright (c) 2008-2010 y-soft. All rights reserved
    http://y-soft.org
    ANALYZER: auCDtect: CD records authenticity detector, version 0.8.2
    Copyright (c) 2004 Oleg Berngardt. All rights reserved.
    Copyright (c) 2004 Alexander Djourik. All rights reserved.
    FILE: 13 - Listen To Your Heart.flac
    Size: 42005783 Hash: 74F943BC5C33A122E995413487D820DB Accuracy: -m0
    Conclusion: CDDA 100%
    Signature: 489C16CE0B2DCD621091E32832AB4280813C42B5
    FILE: 12 - Shadow Of A Doubt.flac
    Size: 34392263 Hash: 7FC0BA5270B91BB14CA257AFAF59794D Accuracy: -m0
    Conclusion: CDDA 100%
    Signature: 675C0C7033309C03F0A1B8208F69D2CB807770DD
    FILE: 11 - (I Could Never) Give You Up.flac
    Size: 32150329 Hash: EA1D88B1F5F5C5B7CF08B63FBAC5D9A5 Accuracy: -m0
    Conclusion: CDDA 100%
    Signature: 2A61E46A0C6ACB0A378D44DD7B667164382FB960
    FILE: 10 - View From A Hill.flac
    Size: 28529166 Hash: 0FDB454247F42202C0FF15AFDE5AD8FF Accuracy: -m0
    Conclusion: CDDA 99%
    Signature: BB6AAA4C5D06E7CC252DE31A0A53D780001ECFD8
    FILE: 09 - Half A Woman, Half A Shadow.flac
    Size: 28965706 Hash: 0F7D293649AC7D9AAEEEC6F6512BA170 Accuracy: -m0
    Conclusion: CDDA 100%
    Signature: DD5581CBC91EE6A48C317BFFAF7C8493D89623AB
    FILE: 08 - Dangerous.flac
    Size: 30824913 Hash: FC7EA1573550F3741A1C82E515BA0F9E Accuracy: -m0
    Conclusion: CDDA 100%
    Signature: 73F298872D70BB879F9E20CB4A181FD6C45DCBA0
    FILE: 07 - Chances.flac
    Size: 40397549 Hash: E01D1B422CD665A3CF482B284637AB2B Accuracy: -m0
    Conclusion: CDDA 100%
    Signature: 35B41CBF96CD9C820E0D2CD425C43EA768DAC7FD
    FILE: 06 - Cry.flac
    Size: 39505010 Hash: C5E9139C30612375D974B144F0D6E86A Accuracy: -m0
    Conclusion: CDDA 100%
    Signature: B1E331AC210F2D22DADEB54FD7561F10DA852E76
    FILE: 05 - Dance Away.flac
    Size: 27152548 Hash: 067C312EC981511E71E03EEA088719B5 Accuracy: -m0
    Conclusion: CDDA 100%
    Signature: BA9A3B6B94A7D64F291E615B8FD3E5DBDA807846
    FILE: 04 - Paint.flac
    Size: 26912056 Hash: 4BE5FA8CE91163C72C5FB04315137546 Accuracy: -m0
    Conclusion: CDDA 100%
    Signature: B14A7E3A436700C0826EDFA5D1F0D3BBDBDDE5A5
    FILE: 03 - Sleeping Single.flac
    Size: 37072335 Hash: C4F279029C228F85E09A15991724CBAE Accuracy: -m0
    Conclusion: CDDA 92%
    Signature: E078830AD9A2B7FFCE3618452D4913871F8A9826
    FILE: 02 - Dressed For Success.flac
    Size: 32816149 Hash: A7099ACF71D40621CEAFA1EFB1957F3F Accuracy: -m0
    Conclusion: CDDA 99%
    Signature: 3A9EE89876BDF9C170B927DAA60DA3AD549D5199
    FILE: 01 - The Look.flac
    Size: 30210132 Hash: 4F154173D93B11DAE6834D8B76EB81D2 Accuracy: -m0
    Conclusion: CDDA 100%
    Signature: A5BF5AD4584C87AC732A5E54BCD8891EF0B76723


    Roxette - Look Sharp! (30th Anniversary Edition) (2018) 2CD, RE. RM. Parlophone [FLAC|Lossless|tracks + .cue] <Pop Rock>
    Рейтинг →
     (голосов: 1, оценка 4/5, голосовать можно 1 раз )

    Другие торренты по теме:

  • Roxette - Look Sharp! (1988) [FLAC|Lossless]<Pop-Rock> скачать через торрент бесплатно


    • Комментарии (0):

      Информация

      Информация

        Посетители, находящиеся в группе Гости, не могут оставлять комментарии в данной новости.

        ↓ Меню




        ↓ Опрос

        Вы добавили сайт в закладки?
        Да
        Нет


        Top 10 за месяц (Музыка)