.
Авторизация | Регистрация
Хочешь лучшие торренты? Добавь свой email!
Добавить

Торрент скачать бесплатно

  • support: webmaster@btracker.club
» » Oi Va Voi - Laughter Through Tears (2003) [FLAC|Lossless|tracks + .cue] <Leftfield, Dub, Future Jazz> торрент скачать бесплатно


    Oi Va Voi - Laughter Through Tears (2003) [FLAC|Lossless|tracks + .cue] <Leftfield, Dub, Future Jazz> торрент скачать бесплатно

    Опубликовал: fregat | Дата: 31-10-2018, 05:00 | .torrent скачали: 0

    Oi Va Voi - Laughter Through Tears (2003) [FLAC|Lossless|tracks + .cue] &ltLeftfield, Dub, Future Jazz>Жанр: Leftfield, Dub, Future Jazz, Downtempo
    Издание: Outcaste Records - CASTE29CD
    Продолжительность: 00: 53: 04
    Кодек: FLAC
    Битрейт: Lossless
    Тип рипа: tracks + .cue

    Треклист

    01. Refugee (3: 38)
    02. Yesterday's Mistakes (4: 40)
    03. Od Yeshoma (4: 55)
    04. A Csitári Hegyek Alatt (4: 15)
    05. Ladino Song (4: 13)
    06. 7 Brothers (4: 33)
    07. D'Ror Yikra (5: 57)
    08. Gypsy (feat. Earl Zinger) (4: 47)
    09. Hora (3: 58)
    10. Pagamenska (12: 08)
    YouTube

    Exact Audio Copy V1.3 from 2. September 2016
    EAC extraction logfile from 28. May 2017, 12: 12
    Oi Va Voi/Laughter Through Tears
    Used drive : _NEC DVD_RW ND-3520AW Adapter: 1 ID: 1
    Read mode : Secure
    Utilize accurate stream : Yes
    Defeat audio cache : Yes
    Make use of C2 pointers : No
    Read offset correction : 48
    Overread into Lead-In and Lead-Out : No
    Fill up missing offset samples with silence : Yes
    Delete leading and trailing silent blocks : No
    Null samples used in CRC calculations : Yes
    Used interface : Native Win32 interface for Win NT 2000
    Gap handling : Appended to previous track
    Used output format : User Defined Encoder
    Selected bitrate : 896 kBit/s
    Quality : High
    Add ID3 tag : No
    Command line compressor : C: Program Files (x86)FLAC Frontend ools lac.exe
    Additional command line options : -8 -V -T ARTIST=%artist% -T TITLE=%title% -T ALBUM=%albumtitle% -T DATE=%year% -T TRACKNUMBER=%tracknr% -T GENRE=%genre% -T PERFORMER=%albuminterpret% -T COMPOSER=%composer% %haslyrics%--tag-from-file=LYRICS=%lyricsfile%%haslyrics% -T ALBUMARTIST=%albumartist% -T DISCNUMBER=%cdnumber% -T TOTALDISCS=%totalcds% -T TOTALTRACKS=%numtracks% -T COMMENT=%comment% %source% -o %dest%
    TOC of the extracted CD
    Track | Start | Length | Start sector | End sector
    ---------------------------------------------------------
    1 | 0: 00.00 | 3: 37.52 | 0 | 16326
    2 | 3: 37.52 | 4: 40.30 | 16327 | 37356
    3 | 8: 18.07 | 4: 54.65 | 37357 | 59471
    4 | 13: 12.72 | 4: 14.45 | 59472 | 78566
    5 | 17: 27.42 | 4: 12.55 | 78567 | 97521
    6 | 21: 40.22 | 4: 33.18 | 97522 | 118014
    7 | 26: 13.40 | 5: 57.35 | 118015 | 144824
    8 | 32: 11.00 | 4: 46.42 | 144825 | 166316
    9 | 36: 57.42 | 3: 57.55 | 166317 | 184146
    10 | 40: 55.22 | 12: 08.25 | 184147 | 238771
    Track 1
    Filename E: EAC RipsOi Va Voi - Laughter Through Tears (2003) {CASTE29CD} FLAC - Refugee.wav
    Pre-gap length 0: 00: 02.00
    Peak level 100.0 %
    Extraction speed 3.5 X
    Track quality 100.0 %
    Test CRC 405ECF86
    Copy CRC 405ECF86
    Accurately ripped (confidence 47) 842D3082 (AR v2)
    Copy OK
    Track 2
    Filename E: EAC RipsOi Va Voi - Laughter Through Tears (2003) {CASTE29CD} FLAC - Yesterday's Mistakes.wav
    Pre-gap length 0: 00: 01.42
    Peak level 100.0 %
    Extraction speed 4.0 X
    Track quality 100.0 %
    Test CRC A7DBF97C
    Copy CRC A7DBF97C
    Accurately ripped (confidence 46) F35204DB (AR v2)
    Copy OK
    Track 3
    Filename E: EAC RipsOi Va Voi - Laughter Through Tears (2003) {CASTE29CD} FLAC - Od Yeshoma.wav
    Pre-gap length 0: 00: 01.53
    Peak level 100.0 %
    Extraction speed 4.5 X
    Track quality 100.0 %
    Test CRC 092C0B15
    Copy CRC 092C0B15
    Accurately ripped (confidence 47) B1E2D5A2 (AR v2)
    Copy OK
    Track 4
    Filename E: EAC RipsOi Va Voi - Laughter Through Tears (2003) {CASTE29CD} FLAC - A Csitári Hegyek Alatt.wav
    Pre-gap length 0: 00: 01.53
    Peak level 100.0 %
    Extraction speed 4.0 X
    Track quality 99.9 %
    Test CRC 950D9682
    Copy CRC 950D9682
    Accurately ripped (confidence 46) BD27B5A8 (AR v2)
    Copy OK
    Track 5
    Filename E: EAC RipsOi Va Voi - Laughter Through Tears (2003) {CASTE29CD} FLAC - Ladino Song.wav
    Peak level 100.0 %
    Extraction speed 5.0 X
    Track quality 100.0 %
    Test CRC 1BA47751
    Copy CRC 1BA47751
    Accurately ripped (confidence 46) AA1BE7A4 (AR v2)
    Copy OK
    Track 6
    Filename E: EAC RipsOi Va Voi - Laughter Through Tears (2003) {CASTE29CD} FLAC - 7 Brothers.wav
    Pre-gap length 0: 00: 01.46
    Peak level 100.0 %
    Extraction speed 4.5 X
    Track quality 99.9 %
    Test CRC 352B3A1D
    Copy CRC 352B3A1D
    Accurately ripped (confidence 46) D4E1DBB7 (AR v2)
    Copy OK
    Track 7
    Filename E: EAC RipsOi Va Voi - Laughter Through Tears (2003) {CASTE29CD} FLAC - D'Ror Yikra.wav
    Pre-gap length 0: 00: 01.30
    Peak level 100.0 %
    Extraction speed 5.9 X
    Track quality 100.0 %
    Test CRC 9AED7BCA
    Copy CRC 9AED7BCA
    Accurately ripped (confidence 46) 53B863AA (AR v2)
    Copy OK
    Track 8
    Filename E: EAC RipsOi Va Voi - Laughter Through Tears (2003) {CASTE29CD} FLAC8 - Gypsy (feat. Earl Zinger).wav
    Pre-gap length 0: 00: 01.46
    Peak level 100.0 %
    Extraction speed 6.0 X
    Track quality 100.0 %
    Test CRC 517F3B82
    Copy CRC 517F3B82
    Accurately ripped (confidence 46) 5DD1B28C (AR v2)
    Copy OK
    Track 9
    Filename E: EAC RipsOi Va Voi - Laughter Through Tears (2003) {CASTE29CD} FLAC9 - Hora.wav
    Pre-gap length 0: 00: 01.89
    Peak level 100.0 %
    Extraction speed 5.0 X
    Track quality 99.9 %
    Test CRC 37E2FAF5
    Copy CRC 37E2FAF5
    Accurately ripped (confidence 45) 9A1B5628 (AR v2)
    Copy OK
    Track 10
    Filename E: EAC RipsOi Va Voi - Laughter Through Tears (2003) {CASTE29CD} FLAC - Pagamenska.wav
    Pre-gap length 0: 00: 01.20
    Peak level 100.0 %
    Extraction speed 7.2 X
    Track quality 100.0 %
    Test CRC 4C29745B
    Copy CRC 4C29745B
    Accurately ripped (confidence 46) 23182345 (AR v2)
    Copy OK
    All tracks accurately ripped
    No errors occurred
    End of status report
    ---- CUETools DB Plugin V2.1.6
    CTDB TOCID: jEL2KnL__7Qdx2TABkAHdjEd8TU- found
    Submit result: jEL2KnL__7Qdx2TABkAHdjEd8TU- has been confirmed
    Track | CTDB Status
    1 | (93/94) Accurately ripped
    2 | (92/94) Accurately ripped
    3 | (92/94) Accurately ripped
    4 | (93/94) Accurately ripped
    5 | (94/94) Accurately ripped
    6 | (94/94) Accurately ripped
    7 | (93/94) Accurately ripped
    8 | (92/94) Accurately ripped
    9 | (94/94) Accurately ripped
    10 | (93/94) Accurately ripped
    ==== Log checksum F3043A4D199F584947952CCA543027799CCAA73CA0855728F200F44146A1E86E ====

    REM GENRE Electronic
    REM DATE 2003
    REM DISCID 7D0C6F0A
    REM COMMENT ExactAudioCopy v1.3
    PERFORMER Oi Va Voi
    TITLE Laughter Through Tears
    REM COMPOSER
    FILE 01 - Refugee.wav WAVE
    TRACK 01 AUDIO
    TITLE Refugee
    PERFORMER Oi Va Voi
    REM COMPOSER
    ISRC GBDYB0300111
    INDEX 01 00: 00: 00
    TRACK 02 AUDIO
    TITLE Yesterday's Mistakes
    PERFORMER Oi Va Voi
    REM COMPOSER
    ISRC GBDYB0300112
    INDEX 00 03: 36: 20
    FILE 02 - Yesterday's Mistakes.wav WAVE
    INDEX 01 00: 00: 00
    TRACK 03 AUDIO
    TITLE Od Yeshoma
    PERFORMER Oi Va Voi
    REM COMPOSER
    ISRC GBDYB0300113
    INDEX 00 04: 38: 65
    FILE 03 - Od Yeshoma.wav WAVE
    INDEX 01 00: 00: 00
    TRACK 04 AUDIO
    TITLE A Csitбri Hegyek Alatt
    PERFORMER Oi Va Voi
    REM COMPOSER
    ISRC GBDYB0300114
    INDEX 00 04: 53: 25
    FILE 04 - A Csitбri Hegyek Alatt.wav WAVE
    INDEX 01 00: 00: 00
    FILE 05 - Ladino Song.wav WAVE
    TRACK 05 AUDIO
    TITLE Ladino Song
    PERFORMER Oi Va Voi
    REM COMPOSER
    ISRC GBDYB0300115
    INDEX 01 00: 00: 00
    TRACK 06 AUDIO
    TITLE 7 Brothers
    PERFORMER Oi Va Voi
    REM COMPOSER
    ISRC GBDYB0300116
    INDEX 00 04: 11: 20
    FILE 06 - 7 Brothers.wav WAVE
    INDEX 01 00: 00: 00
    TRACK 07 AUDIO
    TITLE D'Ror Yikra
    PERFORMER Oi Va Voi
    REM COMPOSER
    ISRC GBDYB0300118
    INDEX 00 04: 31: 70
    FILE 07 - D'Ror Yikra.wav WAVE
    INDEX 01 00: 00: 00
    TRACK 08 AUDIO
    TITLE Gypsy (feat. Earl Zinger)
    PERFORMER Oi Va Voi
    REM COMPOSER
    ISRC GBDYB0300119
    INDEX 00 05: 56: 00
    FILE 08 - Gypsy (feat. Earl Zinger).wav WAVE
    INDEX 01 00: 00: 00
    TRACK 09 AUDIO
    TITLE Hora
    PERFORMER Oi Va Voi
    REM COMPOSER
    ISRC GBDYB0300120
    INDEX 00 04: 44: 50
    FILE 09 - Hora.wav WAVE
    INDEX 01 00: 00: 00
    TRACK 10 AUDIO
    TITLE Pagamenska
    PERFORMER Oi Va Voi
    REM COMPOSER
    ISRC GBDYB0300121
    INDEX 00 03: 56: 40
    FILE 10 - Pagamenska.wav WAVE
    INDEX 01 00: 00: 00

    -----------------------
    DON'T MODIFY THIS FILE
    -----------------------
    PERFORMER: auCDtect Task Manager, ver. 1.6.0 RC1 build 1.6.0.1
    Copyright (c) 2008-2010 y-soft. All rights reserved
    http://y-soft.org
    ANALYZER: auCDtect: CD records authenticity detector, version 0.8.2
    Copyright (c) 2004 Oleg Berngardt. All rights reserved.
    Copyright (c) 2004 Alexander Djourik. All rights reserved.
    FILE: 03 - Od Yeshoma.flac
    Size: 27697394 Hash: B6F9B36959C7A1FB87E820A6FDC794DF Accuracy: -m0
    Conclusion: CDDA 100%
    Signature: 15BE58402CFB276B507EEE6D81134311FB1C00FE
    FILE: 02 - Yesterday's Mistakes.flac
    Size: 29822962 Hash: 736C30F5553E232FC819BA628B6C5AEB Accuracy: -m0
    Conclusion: CDDA 100%
    Signature: B5757DD532D418BA5CB31D4B9FCB8E1F1D814369
    FILE: 01 - Refugee.flac
    Size: 23903288 Hash: D4C4631046AE06029B6F7690229C705C Accuracy: -m0
    Conclusion: CDDA 100%
    Signature: CE44E4434D696D2C7052ABB2FF16EE1042B7DB7D
    FILE: 10 - Pagamenska.flac
    Size: 49253776 Hash: 680B46A1795E3FC56AD8B250C284C428 Accuracy: -m0
    Conclusion: CDDA 99%
    Signature: 36E2A2D7AD12EDF92822B151C509CF8310C3F7DD
    FILE: 09 - Hora.flac
    Size: 16788232 Hash: 77C4BB8976D6BE7CC01119F95B817EF8 Accuracy: -m0
    Conclusion: MPEG 100%
    Signature: F64ED9A13646EC9F4F3E3590690E2A2095F1B5A1
    FILE: 07 - D'Ror Yikra.flac
    Size: 41502063 Hash: 8D8C12118AACDCC8B960C995CC552CA1 Accuracy: -m0
    Conclusion: CDDA 100%
    Signature: 9B44F23DBB773DBD7077FE3E944C842555496B5D
    FILE: 06 - 7 Brothers.flac
    Size: 30443161 Hash: 3D64FCCD9A56E45E4C55F56D66FAB294 Accuracy: -m0
    Conclusion: CDDA 100%
    Signature: 0A52E9314DF12F08D4C172F8872270FBC243D626
    FILE: 05 - Ladino Song.flac
    Size: 21819499 Hash: DD6801C232DEC28D5A0B4F56BB78547E Accuracy: -m0
    Conclusion: MPEG 95%
    Signature: 197E5D1DC66509778E519DC792FAC182DF445012





    Поглощение/вытеснение
    Только с согласия релизера

    Pashketan


    Oi Va Voi - Laughter Through Tears (2003) [FLAC|Lossless|tracks + .cue] <Leftfield, Dub, Future Jazz>
    Рейтинг →
     (голосов: 1, оценка 5/5, голосовать можно 1 раз )

    Другие торренты по теме:

  • Unleashed - Where No Life Dwells / And the Laughter Has Died... (1991) [FLAC|image+.cue]<Death Metal> скачать через торрент бесплатно
  • Paramore - After Laughter (2017) [MP3|320 Kbps] <Pop Rock, Alternative Rock>
  • Paramore - After Laughter (2017) [FLAC|Lossless|WEB-DL|tracks] <Pop Rock, Alternative Rock>
  • Dread of Laughter (2018) [En] (1.0) License PLAZA


    • Комментарии (0):

      Информация

      Информация

        Посетители, находящиеся в группе Гости, не могут оставлять комментарии в данной новости.

        ↓ Меню




        ↓ Опрос

        Вы добавили сайт в закладки?
        Да
        Нет


        Top 10 за месяц (Музыка)