.
Авторизация | Регистрация
Хочешь лучшие торренты? Добавь свой email!
Добавить

Торрент скачать бесплатно

  • support: webmaster@btracker.club
» » U2 - U218 Singles (2006) [FLAC|Lossless|tracks + .cue] <Rock> торрент скачать бесплатно


    U2 - U218 Singles (2006) [FLAC|Lossless|tracks + .cue] <Rock> торрент скачать бесплатно

    Опубликовал: fregat | Дата: 31-10-2018, 05:00 | .torrent скачали: 0

    U2 - U218 Singles (2006) [FLAC|Lossless|tracks + .cue] &ltRock>Жанр: Rock
    Издание: Interscope Records - B0008027-02
    Продолжительность: 01: 14: 35
    Кодек: FLAC
    Битрейт: Lossless
    Тип рипа: tracks + .cue

    Треклист

    01. Beautiful Day (04: 05)
    02. I Still Haven't Found What I'm Looking For (04: 37)
    03. Pride (In the Name of Love) (03: 49)
    04. With or Without You (04: 56)
    05. Vertigo (03: 10)
    06. New Year's Day (04: 18)
    07. Mysterious Ways (04: 02)
    08. Stuck in a Moment You Can't Get Out Of (04: 32)
    09. Where the Streets Have No Name (04: 47)
    10. Sweetest Thing (03: 01)
    11. Sunday Bloody Sunday (04: 40)
    12. One (04: 36)
    13. Desire (03: 00)
    14. Walk On (04: 29)
    15. Elevation (03: 49)
    16. Sometimes You Can't Make It on Your Own (05: 06)
    17. The Saints Are Coming (03: 22)
    18. Window in the Skies (04: 07)

    X Lossless Decoder version 20170729 (150.3)
    XLD extraction logfile from 2018-03-04 16: 20: 59 -0500
    U2/U218 Singles
    Used drive : TSSTcorp CDDVDW SE-S204N (revision TS02)
    Media type : Pressed CD
    Ripper mode : XLD Secure Ripper
    Disable audio cache : OK for the drive with a cache less than 1375KiB
    Make use of C2 pointers : NO
    Read offset correction : 6
    Max retry count : 100
    Gap status : Analyzed, Appended (except HTOA)
    TOC of the extracted CD
    Track | Start | Length | Start sector | End sector
    ---------------------------------------------------------
    1 | 00: 00: 00 | 04: 05: 67 | 0 | 18441
    2 | 04: 05: 67 | 04: 37: 25 | 18442 | 39241
    3 | 08: 43: 17 | 03: 49: 11 | 39242 | 56427
    4 | 12: 32: 28 | 04: 56: 63 | 56428 | 78690
    5 | 17: 29: 16 | 03: 10: 54 | 78691 | 92994
    6 | 20: 39: 70 | 04: 18: 45 | 92995 | 112389
    7 | 24: 58: 40 | 04: 02: 67 | 112390 | 130606
    8 | 29: 01: 32 | 04: 32: 26 | 130607 | 151032
    9 | 33: 33: 58 | 04: 47: 66 | 151033 | 172623
    10 | 38: 21: 49 | 03: 01: 02 | 172624 | 186200
    11 | 41: 22: 51 | 04: 40: 64 | 186201 | 207264
    12 | 46: 03: 40 | 04: 36: 30 | 207265 | 227994
    13 | 50: 39: 70 | 03: 00: 01 | 227995 | 241495
    14 | 53: 39: 71 | 04: 29: 13 | 241496 | 261683
    15 | 58: 09: 09 | 03: 49: 02 | 261684 | 278860
    16 | 61: 58: 11 | 05: 06: 42 | 278861 | 301852
    17 | 67: 04: 53 | 03: 22: 58 | 301853 | 317060
    18 | 70: 27: 36 | 04: 07: 52 | 317061 | 335637
    List of alternate offset correction values
    # | Absolute | Relative | Confidence
    ------------------------------------------
    1 | 670 | 664 | 400
    2 | 658 | 652 | 29
    3 | 680 | 674 | 12
    4 | 664 | 658 | 7
    5 | 538 | 532 | 5
    6 | 676 | 670 | 5
    7 | 560 | 554 | 5
    8 | 652 | 646 | 5
    9 | 628 | 622 | 4
    10 | 12 | 6 | 4
    11 | 682 | 676 | 4
    12 | 640 | 634 | 3
    13 | 626 | 620 | 2
    14 | 634 | 628 | 2
    AccurateRip Summary (DiscID: 0030fd0a-028c097a-cf117b12)
    Track 01 : OK (v1+v2, confidence 255/742)
    Track 02 : OK (v1+v2, confidence 254/735)
    Track 03 : OK (v1+v2, confidence 257/740)
    Track 04 : OK (v1+v2, confidence 256/736)
    Track 05 : OK (v1+v2, confidence 256/740)
    Track 06 : OK (v1+v2, confidence 252/734)
    Track 07 : OK (v1+v2, confidence 257/738)
    Track 08 : OK (v1+v2, confidence 252/735)
    Track 09 : OK (v1+v2, confidence 252/733)
    Track 10 : OK (v1+v2, confidence 250/735)
    Track 11 : OK (v1+v2, confidence 253/735)
    Track 12 : OK (v1+v2, confidence 254/737)
    Track 13 : OK (v1+v2, confidence 252/733)
    Track 14 : OK (v1+v2, confidence 250/729)
    Track 15 : OK (v1+v2, confidence 253/737)
    Track 16 : OK (v1+v2, confidence 251/730)
    Track 17 : OK (v1+v2, confidence 249/725)
    Track 18 : OK (v1+v2, confidence 247/723)
    -All tracks accurately ripped.
    All Tracks
    Album gain : -9.66 dB
    Peak : 1.000000
    Statistics
    Read error : 0
    Jitter error (maybe fixed) : 0
    Retry sector count : 0
    Damaged sector count : 0
    Track 01
    Filename : /Volumes/Flash Drive/U2 - U218 Singles (2006) (B0008027-02 CD) (FLAC)/01 Beautiful Day.flac
    Pre-gap length : 00: 02: 00
    Track gain : -8.71 dB
    Peak : 1.000000
    CRC32 hash (test run) : 361F622C
    CRC32 hash : 361F622C
    CRC32 hash (skip zero) : 5CA18699
    AccurateRip v1 signature : F26D0368
    AccurateRip v2 signature : 43BC3715
    -Accurately ripped (v1+v2, confidence 78+177/742)
    Statistics
    Read error : 0
    Jitter error (maybe fixed) : 0
    Retry sector count : 0
    Damaged sector count : 0
    Track 02
    Filename : /Volumes/Flash Drive/U2 - U218 Singles (2006) (B0008027-02 CD) (FLAC)/02 I Still Haven't Found What I'm Looking For.flac
    Pre-gap length : 00: 00: 14
    Track gain : -7.87 dB
    Peak : 1.000000
    CRC32 hash (test run) : 790EF11C
    CRC32 hash : 790EF11C
    CRC32 hash (skip zero) : A0CC39D7
    AccurateRip v1 signature : 5811367A
    AccurateRip v2 signature : 076633C6
    -Accurately ripped (v1+v2, confidence 75+179/735)
    Statistics
    Read error : 0
    Jitter error (maybe fixed) : 0
    Retry sector count : 0
    Damaged sector count : 0
    Track 03
    Filename : /Volumes/Flash Drive/U2 - U218 Singles (2006) (B0008027-02 CD) (FLAC)/03 Pride (In the Name of Love).flac
    Track gain : -10.94 dB
    Peak : 0.988556
    CRC32 hash (test run) : 16ACB106
    CRC32 hash : 16ACB106
    CRC32 hash (skip zero) : E3400C33
    AccurateRip v1 signature : 49650B0E
    AccurateRip v2 signature : 403D8160
    -Accurately ripped (v1+v2, confidence 79+178/740)
    Statistics
    Read error : 0
    Jitter error (maybe fixed) : 0
    Retry sector count : 0
    Damaged sector count : 0
    Track 04
    Filename : /Volumes/Flash Drive/U2 - U218 Singles (2006) (B0008027-02 CD) (FLAC)/04 With or Without You.flac
    Pre-gap length : 00: 00: 08
    Track gain : -8.90 dB
    Peak : 1.000000
    CRC32 hash (test run) : 72D488BF
    CRC32 hash : 72D488BF
    CRC32 hash (skip zero) : 0671E8B7
    AccurateRip v1 signature : 813E69B2
    AccurateRip v2 signature : 1E603A45
    -Accurately ripped (v1+v2, confidence 76+180/736)
    Statistics
    Read error : 0
    Jitter error (maybe fixed) : 0
    Retry sector count : 0
    Damaged sector count : 0
    Track 05
    Filename : /Volumes/Flash Drive/U2 - U218 Singles (2006) (B0008027-02 CD) (FLAC)/05 Vertigo.flac
    Pre-gap length : 00: 00: 46
    Track gain : -10.05 dB
    Peak : 0.906769
    CRC32 hash (test run) : A1315C76
    CRC32 hash : A1315C76
    CRC32 hash (skip zero) : FC24DE74
    AccurateRip v1 signature : D89588A4
    AccurateRip v2 signature : 5989E712
    -Accurately ripped (v1+v2, confidence 77+179/740)
    Statistics
    Read error : 0
    Jitter error (maybe fixed) : 0
    Retry sector count : 0
    Damaged sector count : 0
    Track 06
    Filename : /Volumes/Flash Drive/U2 - U218 Singles (2006) (B0008027-02 CD) (FLAC)/06 New Year's Day.flac
    Pre-gap length : 00: 00: 17
    Track gain : -9.21 dB
    Peak : 1.000000
    CRC32 hash (test run) : 18B26F60
    CRC32 hash : 18B26F60
    CRC32 hash (skip zero) : 38DC49BD
    AccurateRip v1 signature : 1BB0852F
    AccurateRip v2 signature : 3EBE4E96
    -Accurately ripped (v1+v2, confidence 74+178/734)
    Statistics
    Read error : 0
    Jitter error (maybe fixed) : 0
    Retry sector count : 0
    Damaged sector count : 0
    Track 07
    Filename : /Volumes/Flash Drive/U2 - U218 Singles (2006) (B0008027-02 CD) (FLAC)/07 Mysterious Ways.flac
    Pre-gap length : 00: 00: 38
    Track gain : -8.18 dB
    Peak : 1.000000
    CRC32 hash (test run) : 42E36608
    CRC32 hash : 42E36608
    CRC32 hash (skip zero) : 6ECF78EB
    AccurateRip v1 signature : 6BDB1278
    AccurateRip v2 signature : FFBA840A
    -Accurately ripped (v1+v2, confidence 79+178/738)
    Statistics
    Read error : 0
    Jitter error (maybe fixed) : 0
    Retry sector count : 0
    Damaged sector count : 0
    Track 08
    Filename : /Volumes/Flash Drive/U2 - U218 Singles (2006) (B0008027-02 CD) (FLAC)/08 Stuck in a Moment You Can't Get Out Of.flac
    Pre-gap length : 00: 00: 09
    Track gain : -8.53 dB
    Peak : 0.944031
    CRC32 hash (test run) : 3832805B
    CRC32 hash : 3832805B
    CRC32 hash (skip zero) : FF1FC90D
    AccurateRip v1 signature : D0B884DB
    AccurateRip v2 signature : D99A08A3
    -Accurately ripped (v1+v2, confidence 77+175/735)
    Statistics
    Read error : 0
    Jitter error (maybe fixed) : 0
    Retry sector count : 0
    Damaged sector count : 0
    Track 09
    Filename : /Volumes/Flash Drive/U2 - U218 Singles (2006) (B0008027-02 CD) (FLAC)/09 Where the Streets Have No Name.flac
    Track gain : -9.87 dB
    Peak : 0.988556
    CRC32 hash (test run) : 296170AD
    CRC32 hash : 296170AD
    CRC32 hash (skip zero) : CE79839C
    AccurateRip v1 signature : E2CBE426
    AccurateRip v2 signature : C69380CF
    -Accurately ripped (v1+v2, confidence 74+178/733)
    Statistics
    Read error : 0
    Jitter error (maybe fixed) : 0
    Retry sector count : 0
    Damaged sector count : 0
    Track 10
    Filename : /Volumes/Flash Drive/U2 - U218 Singles (2006) (B0008027-02 CD) (FLAC)/10 Sweetest Thing.flac
    Pre-gap length : 00: 01: 30
    Track gain : -8.29 dB
    Peak : 1.000000
    CRC32 hash (test run) : 85ECCB2A
    CRC32 hash : 85ECCB2A
    CRC32 hash (skip zero) : 558632CA
    AccurateRip v1 signature : 9F8058BA
    AccurateRip v2 signature : CB2756A6
    -Accurately ripped (v1+v2, confidence 74+176/735)
    Statistics
    Read error : 0
    Jitter error (maybe fixed) : 0
    Retry sector count : 0
    Damaged sector count : 0
    Track 11
    Filename : /Volumes/Flash Drive/U2 - U218 Singles (2006) (B0008027-02 CD) (FLAC)/11 Sunday Bloody Sunday.flac
    Pre-gap length : 00: 01: 09
    Track gain : -10.52 dB
    Peak : 1.000000
    CRC32 hash (test run) : EB7249C5
    CRC32 hash : EB7249C5
    CRC32 hash (skip zero) : 8AA57A49
    AccurateRip v1 signature : 89F4F556
    AccurateRip v2 signature : FBB11635
    -Accurately ripped (v1+v2, confidence 76+177/735)
    Statistics
    Read error : 0
    Jitter error (maybe fixed) : 0
    Retry sector count : 0
    Damaged sector count : 0
    Track 12
    Filename : /Volumes/Flash Drive/U2 - U218 Singles (2006) (B0008027-02 CD) (FLAC)/12 One.flac
    Pre-gap length : 00: 00: 67
    Track gain : -9.27 dB
    Peak : 1.000000
    CRC32 hash (test run) : D789850E
    CRC32 hash : D789850E
    CRC32 hash (skip zero) : 54E11B57
    AccurateRip v1 signature : A435CAA7
    AccurateRip v2 signature : 9F03D455
    -Accurately ripped (v1+v2, confidence 78+176/737)
    Statistics
    Read error : 0
    Jitter error (maybe fixed) : 0
    Retry sector count : 0
    Damaged sector count : 0
    Track 13
    Filename : /Volumes/Flash Drive/U2 - U218 Singles (2006) (B0008027-02 CD) (FLAC)/13 Desire.flac
    Pre-gap length : 00: 01: 00
    Track gain : -9.34 dB
    Peak : 1.000000
    CRC32 hash (test run) : 214DCE80
    CRC32 hash : 214DCE80
    CRC32 hash (skip zero) : A0532ED2
    AccurateRip v1 signature : 8E56E9F1
    AccurateRip v2 signature : ADCCBB2E
    -Accurately ripped (v1+v2, confidence 75+177/733)
    Statistics
    Read error : 0
    Jitter error (maybe fixed) : 0
    Retry sector count : 0
    Damaged sector count : 0
    Track 14
    Filename : /Volumes/Flash Drive/U2 - U218 Singles (2006) (B0008027-02 CD) (FLAC)/14 Walk On.flac
    Pre-gap length : 00: 01: 13
    Track gain : -9.21 dB
    Peak : 1.000000
    CRC32 hash (test run) : 98AB32CE
    CRC32 hash : 98AB32CE
    CRC32 hash (skip zero) : 4A97D98C
    AccurateRip v1 signature : F183AF80
    AccurateRip v2 signature : 333926F3
    -Accurately ripped (v1+v2, confidence 76+174/729)
    Statistics
    Read error : 0
    Jitter error (maybe fixed) : 0
    Retry sector count : 0
    Damaged sector count : 0
    Track 15
    Filename : /Volumes/Flash Drive/U2 - U218 Singles (2006) (B0008027-02 CD) (FLAC)/15 Elevation.flac
    Pre-gap length : 00: 02: 39
    Track gain : -8.97 dB
    Peak : 1.000000
    CRC32 hash (test run) : F6D63A1F
    CRC32 hash : F6D63A1F
    CRC32 hash (skip zero) : 38FC0685
    AccurateRip v1 signature : 1691EF14
    AccurateRip v2 signature : 69CD5C8E
    -Accurately ripped (v1+v2, confidence 77+176/737)
    Statistics
    Read error : 0
    Jitter error (maybe fixed) : 0
    Retry sector count : 0
    Damaged sector count : 0
    Track 16
    Filename : /Volumes/Flash Drive/U2 - U218 Singles (2006) (B0008027-02 CD) (FLAC)/16 Sometimes You Can't Make It on Your Own.flac
    Pre-gap length : 00: 01: 69
    Track gain : -9.72 dB
    Peak : 0.988556
    CRC32 hash (test run) : 4F840BAB
    CRC32 hash : 4F840BAB
    CRC32 hash (skip zero) : B1B687F3
    AccurateRip v1 signature : D3035EE7
    AccurateRip v2 signature : 01AD3007
    -Accurately ripped (v1+v2, confidence 77+174/730)
    Statistics
    Read error : 0
    Jitter error (maybe fixed) : 0
    Retry sector count : 0
    Damaged sector count : 0
    Track 17
    Filename : /Volumes/Flash Drive/U2 - U218 Singles (2006) (B0008027-02 CD) (FLAC)/17 The Saints Are Coming.flac
    Pre-gap length : 00: 01: 20
    Track gain : -9.34 dB
    Peak : 0.988556
    CRC32 hash (test run) : 6BF7E1CE
    CRC32 hash : 6BF7E1CE
    CRC32 hash (skip zero) : 3653773F
    AccurateRip v1 signature : 58C973A7
    AccurateRip v2 signature : BB07A055
    -Accurately ripped (v1+v2, confidence 74+175/725)
    Statistics
    Read error : 0
    Jitter error (maybe fixed) : 0
    Retry sector count : 0
    Damaged sector count : 0
    Track 18
    Filename : /Volumes/Flash Drive/U2 - U218 Singles (2006) (B0008027-02 CD) (FLAC)/18 Window in the Skies.flac
    Pre-gap length : 00: 00: 65
    Track gain : -11.23 dB
    Peak : 0.988556
    CRC32 hash (test run) : 00E936A4
    CRC32 hash : 00E936A4
    CRC32 hash (skip zero) : CB1D80CB
    AccurateRip v1 signature : 17BB44FC
    AccurateRip v2 signature : FA04814D
    -Accurately ripped (v1+v2, confidence 74+173/723)
    Statistics
    Read error : 0
    Jitter error (maybe fixed) : 0
    Retry sector count : 0
    Damaged sector count : 0
    No errors occurred
    End of status report
    -----BEGIN XLD SIGNATURE-----
    lXzTzt2t07SsxZaWaqYciaxW9ev4H7rukvd15XHb5NsQVLSK0MA4mo_0VeHX8yNx6ycxxn7OGdzk_DZ1FMorxEkjuEur1LrF7_IBBOC
    -----END XLD SIGNATURE-----

    TITLE U218 Singles
    PERFORMER U2
    REM GENRE Rock
    REM DATE 2006
    REM DISCNUMBER 1
    REM TOTALDISCS 1
    REM DISCID CF117B12
    REM REPLAYGAIN_ALBUM_GAIN -9.66 dB
    REM REPLAYGAIN_ALBUM_PEAK 1.000000
    FILE 01 Beautiful Day.flac WAVE
    TRACK 01 AUDIO
    TITLE Beautiful Day
    ISRC GBAAN0000196
    REM REPLAYGAIN_TRACK_GAIN -8.71 dB
    REM REPLAYGAIN_TRACK_PEAK 1.000000
    INDEX 01 00: 00: 00
    TRACK 02 AUDIO
    TITLE I Still Haven't Found What I'm Looking For
    ISRC GBAAN8790002
    REM REPLAYGAIN_TRACK_GAIN -7.87 dB
    REM REPLAYGAIN_TRACK_PEAK 1.000000
    INDEX 00 04: 05: 53
    FILE 02 I Still Haven't Found What I'm Looking For.flac WAVE
    INDEX 01 00: 00: 00
    FILE 03 Pride (In the Name of Love).flac WAVE
    TRACK 03 AUDIO
    TITLE Pride (In the Name of Love)
    ISRC GBAAN8490002
    REM REPLAYGAIN_TRACK_GAIN -10.94 dB
    REM REPLAYGAIN_TRACK_PEAK 0.988556
    INDEX 01 00: 00: 00
    TRACK 04 AUDIO
    TITLE With or Without You
    ISRC GBAAN8790003
    REM REPLAYGAIN_TRACK_GAIN -8.90 dB
    REM REPLAYGAIN_TRACK_PEAK 1.000000
    INDEX 00 03: 49: 03
    FILE 04 With or Without You.flac WAVE
    INDEX 01 00: 00: 00
    TRACK 05 AUDIO
    TITLE Vertigo
    ISRC GBAAN0400585
    REM REPLAYGAIN_TRACK_GAIN -10.05 dB
    REM REPLAYGAIN_TRACK_PEAK 0.906769
    INDEX 00 04: 56: 17
    FILE 05 Vertigo.flac WAVE
    INDEX 01 00: 00: 00
    TRACK 06 AUDIO
    TITLE New Year's Day
    ISRC GBAAN8300023
    REM REPLAYGAIN_TRACK_GAIN -9.21 dB
    REM REPLAYGAIN_TRACK_PEAK 1.000000
    INDEX 00 03: 10: 37
    FILE 06 New Year's Day.flac WAVE
    INDEX 01 00: 00: 00
    TRACK 07 AUDIO
    TITLE Mysterious Ways
    ISRC GBAAN9190008
    REM REPLAYGAIN_TRACK_GAIN -8.18 dB
    REM REPLAYGAIN_TRACK_PEAK 1.000000
    INDEX 00 04: 18: 07
    FILE 07 Mysterious Ways.flac WAVE
    INDEX 01 00: 00: 00
    TRACK 08 AUDIO
    TITLE Stuck in a Moment You Can't Get Out Of
    ISRC GBAAN0000226
    REM REPLAYGAIN_TRACK_GAIN -8.53 dB
    REM REPLAYGAIN_TRACK_PEAK 0.944031
    INDEX 00 04: 02: 58
    FILE 08 Stuck in a Moment You Can't Get Out Of.flac WAVE
    INDEX 01 00: 00: 00
    FILE 09 Where the Streets Have No Name.flac WAVE
    TRACK 09 AUDIO
    TITLE Where the Streets Have No Name
    ISRC GBUM70605565
    REM REPLAYGAIN_TRACK_GAIN -9.87 dB
    REM REPLAYGAIN_TRACK_PEAK 0.988556
    INDEX 01 00: 00: 00
    TRACK 10 AUDIO
    TITLE Sweetest Thing
    ISRC GBAAN8700048
    REM REPLAYGAIN_TRACK_GAIN -8.29 dB
    REM REPLAYGAIN_TRACK_PEAK 1.000000
    INDEX 00 04: 46: 36
    FILE 10 Sweetest Thing.flac WAVE
    INDEX 01 00: 00: 00
    TRACK 11 AUDIO
    TITLE Sunday Bloody Sunday
    ISRC GBAAN8300034
    REM REPLAYGAIN_TRACK_GAIN -10.52 dB
    REM REPLAYGAIN_TRACK_PEAK 1.000000
    INDEX 00 02: 59: 68
    FILE 11 Sunday Bloody Sunday.flac WAVE
    INDEX 01 00: 00: 00
    TRACK 12 AUDIO
    TITLE One
    ISRC GBAAN9190003
    REM REPLAYGAIN_TRACK_GAIN -9.27 dB
    REM REPLAYGAIN_TRACK_PEAK 1.000000
    INDEX 00 04: 39: 72
    FILE 12 One.flac WAVE
    INDEX 01 00: 00: 00
    TRACK 13 AUDIO
    TITLE Desire
    ISRC GBAAN8890003
    REM REPLAYGAIN_TRACK_GAIN -9.34 dB
    REM REPLAYGAIN_TRACK_PEAK 1.000000
    INDEX 00 04: 35: 30
    FILE 13 Desire.flac WAVE
    INDEX 01 00: 00: 00
    TRACK 14 AUDIO
    TITLE Walk On
    ISRC GBAAN0000256
    REM REPLAYGAIN_TRACK_GAIN -9.21 dB
    REM REPLAYGAIN_TRACK_PEAK 1.000000
    INDEX 00 02: 58: 63
    FILE 14 Walk On.flac WAVE
    INDEX 01 00: 00: 00
    TRACK 15 AUDIO
    TITLE Elevation
    ISRC GBAAN0000229
    REM REPLAYGAIN_TRACK_GAIN -8.97 dB
    REM REPLAYGAIN_TRACK_PEAK 1.000000
    INDEX 00 04: 26: 49
    FILE 15 Elevation.flac WAVE
    INDEX 01 00: 00: 00
    TRACK 16 AUDIO
    TITLE Sometimes You Can't Make It on Your Own
    ISRC GBAAN0400575
    REM REPLAYGAIN_TRACK_GAIN -9.72 dB
    REM REPLAYGAIN_TRACK_PEAK 0.988556
    INDEX 00 03: 47: 08
    FILE 16 Sometimes You Can't Make It on Your Own.flac WAVE
    INDEX 01 00: 00: 00
    TRACK 17 AUDIO
    TITLE The Saints Are Coming
    ISRC GBUM70604745
    REM COMMENT Featuring Green Day
    REM REPLAYGAIN_TRACK_GAIN -9.34 dB
    REM REPLAYGAIN_TRACK_PEAK 0.988556
    INDEX 00 05: 05: 22
    FILE 17 The Saints Are Coming.flac WAVE
    INDEX 01 00: 00: 00
    TRACK 18 AUDIO
    TITLE Window in the Skies
    ISRC GBUM70605595
    REM REPLAYGAIN_TRACK_GAIN -11.23 dB
    REM REPLAYGAIN_TRACK_PEAK 0.988556
    INDEX 00 03: 21: 68
    FILE 18 Window in the Skies.flac WAVE
    INDEX 01 00: 00: 00

    -----------------------
    DON'T MODIFY THIS FILE
    -----------------------
    PERFORMER: auCDtect Task Manager, ver. 1.6.0 RC1 build 1.6.0.1
    Copyright (c) 2008-2010 y-soft. All rights reserved
    http://y-soft.org
    ANALYZER: auCDtect: CD records authenticity detector, version 0.8.2
    Copyright (c) 2004 Oleg Berngardt. All rights reserved.
    Copyright (c) 2004 Alexander Djourik. All rights reserved.
    FILE: 06 New Year's Day.flac
    Size: 33540017 Hash: 199D7C19D2F8BAE8582D38F6C311EBB9 Accuracy: -m0
    Conclusion: CDDA 100%
    Signature: 9078C50ECD9E7050A9797E3DB356BE86AB8B72E8
    FILE: 05 Vertigo.flac
    Size: 24413991 Hash: A61D5F53DD801952BFC563D8DD4D1F1F Accuracy: -m0
    Conclusion: CDDA 100%
    Signature: 172C0AB296640B8179B609C61C1B515435018E80
    FILE: 04 With or Without You.flac
    Size: 32359178 Hash: B7170272FF6021470194C5CBA76868DE Accuracy: -m0
    Conclusion: CDDA 100%
    Signature: B13E5034BB32D31DB2C9C1EE209B8A371175100F
    FILE: 03 Pride (In the Name of Love).flac
    Size: 28259233 Hash: B325513C06C8B03DCFC2D07B255016DF Accuracy: -m0
    Conclusion: CDDA 100%
    Signature: F7BB90747AF8261B8982FC0EF82DB9E0B10FAFEF
    FILE: 02 I Still Haven't Found What I'm Looking For.flac
    Size: 31350382 Hash: DDDCD57210088A1F8635649B1E70C1DA Accuracy: -m0
    Conclusion: CDDA 100%
    Signature: 3E4ADDDACCFD264A5B4842350468B052B2C33B1D
    FILE: 01 Beautiful Day.flac
    Size: 28500661 Hash: A99D1C428CCA2605CA32876B4066AB35 Accuracy: -m0
    Conclusion: CDDA 100%
    Signature: B5E3B8F88C43A167554B222A37952767741FF433
    FILE: 18 Window in the Skies.flac
    Size: 29318581 Hash: 417C1853EA3C9E518AD272A98271E513 Accuracy: -m0
    Conclusion: CDDA 100%
    Signature: 680F720846EAC365010D55E0F133461ED00012DD
    FILE: 17 The Saints Are Coming.flac
    Size: 22938888 Hash: 11E2F6026E7320B9337FAF5B478CDE6A Accuracy: -m0
    Conclusion: CDDA 100%
    Signature: 786A6E6CDE31DB8499D979C1EB91E03EE25CFA32
    FILE: 16 Sometimes You Can't Make It on Your Own.flac
    Size: 33095051 Hash: 261B4DACDC6FCF964BBEB1B59ABFC154 Accuracy: -m0
    Conclusion: CDDA 100%
    Signature: 928995854D2ADBB51675ADDA732C49E9F56D3282
    FILE: 15 Elevation.flac
    Size: 25582899 Hash: 723290EACBAF298EE9F8EB640723908F Accuracy: -m0
    Conclusion: CDDA 100%
    Signature: EAF8DF210B9F12EBC3822D9C5100FD00AD4BA485
    FILE: 14 Walk On.flac
    Size: 35167889 Hash: 04EAA81F47ED8323D34EFFF9E1AB22EF Accuracy: -m0
    Conclusion: CDDA 100%
    Signature: 22665C11D0742F0062B9D1661107D91224A0C5F2
    FILE: 13 Desire.flac
    Size: 22915969 Hash: E7A0E680A10B15B13056AC7B4C685E41 Accuracy: -m0
    Conclusion: CDDA 100%
    Signature: 3BEB6C586C70642CF04C69259CB344C910722C28
    FILE: 12 One.flac
    Size: 32800967 Hash: 9CEA22D03AA9F4974027ADC3955B0080 Accuracy: -m0
    Conclusion: CDDA 100%
    Signature: 06C2849FC56946E8B6435A7C7E177FB6E0B1F16A
    FILE: 11 Sunday Bloody Sunday.flac
    Size: 39253369 Hash: 9AB3C341FC15200023EEC352A71B7B1D Accuracy: -m0
    Conclusion: CDDA 100%
    Signature: 117F987D6C666A47C478D7D951652AF7139180F4
    FILE: 10 Sweetest Thing.flac
    Size: 21216764 Hash: 954C6117863F049BE20DBC3A12A42956 Accuracy: -m0
    Conclusion: CDDA 100%
    Signature: C4F6D7050F6FCF84DE2B393A60CA84E49B90F17F
    FILE: 09 Where the Streets Have No Name.flac
    Size: 30436051 Hash: 7E00AA1C94A3D799DCF1DDD44F38C13B Accuracy: -m0
    Conclusion: CDDA 100%
    Signature: 96CE8C825CC24BA2A4C0B2879FDB5CFBB2C8A07C
    FILE: 08 Stuck in a Moment You Can't Get Out Of.flac
    Size: 34051559 Hash: 893245764327F10F31E2E2CE5D240720 Accuracy: -m0
    Conclusion: CDDA 100%
    Signature: A6E85B1750D23FB1676DCFE85EF1AE8EBACE1BD5
    FILE: 07 Mysterious Ways.flac
    Size: 28616513 Hash: 82D52BAF3E64A56C24D5E32CA48597A5 Accuracy: -m0
    Conclusion: CDDA 100%
    Signature: E44F173EF4F8B15D9CF0C4CC45896A4685453C17



    Поглощение/вытеснение
    Только с согласия релизера

    Pashketan


    U2 - U218 Singles (2006) [FLAC|Lossless|tracks + .cue] <Rock>
    Рейтинг →
     (голосов: 1, оценка 5/5, голосовать можно 1 раз )

    Другие торренты по теме:

  • Mumford & Sons - 19 Albums (2008-2016) 7 Albums, 12 EP & Singles [FLAC|Lossless]<Indie Folk, Alternative Rock, British Folk, Folk rock>
  • Roxette - Why Dont You Bring Me Flowers (2016) Singles [FLAC|Lossless|tracks] <Pop>
  • Armin van Buuren - Anthems (Ultimate Singles Collected) (2014) [FLAC|Lossless]<Trance, Vocal Trance,Progressive Trance.> скачать через торрент бесплатно
  • Дельфин (Dolphin) - 12 Albums+2 Compilations+2 Live+2 Singles+2 Bootleg (Различные издания) (1992-2014) [FLAC|Lossless]<Alternative, Experimental, Hip Hop, Electronic>
  • Room Nine Unlimited (R9U) - 4 Albums, 16 EPs, 6 Singles (2012 - 2015) [FLAC|Lossless|WEB-DL] <Psy-Trance, Progressive Trance, Experimental, Downtempo> скачать через торрент бесплатно
  • CMA - 1 Album, 3 EPS, 5 Singles (2012 - 2015) [FLAC|Lossless|WEB-DL] <Chillstep, Liquid Drum & Bass, Melodic Dubstep> скачать через торрент бесплатно
  • Blvck Ceiling - 12 Albums, 7 Compilations, 2 EPS, 2 Singles (2012 - 2015) [FLAC|Lossless|WEB-DL] <Witch House, Darkwave, Experimental> скачать через торрент бесплатно
  • Nero - Nero Singles Collection (2012) [FLAC|Lossless|WEB-DL]<Electronic, Dubstep> скачать через торрент бесплатно


    • Комментарии (0):

      Информация

      Информация

        Посетители, находящиеся в группе Гости, не могут оставлять комментарии в данной новости.

        ↓ Меню




        ↓ Опрос

        Вы добавили сайт в закладки?
        Да
        Нет


        Top 10 за месяц (Музыка)