.
Авторизация | Регистрация
Хочешь лучшие торренты? Добавь свой email!
Добавить

Торрент скачать бесплатно

  • support: webmaster@btracker.club
» » Heilung - Discography 3 Releases (2015-2018) [FLAC|Lossless|tracks+.cue, tracks] <Neofolk, Experimental, Ritual Folk, Rune Singing, Shamanic> торрент скачать бесплатно


    Heilung - Discography 3 Releases (2015-2018) [FLAC|Lossless|tracks+.cue, tracks] <Neofolk, Experimental, Ritual Folk, Rune Singing, Shamanic> торрент скачать бесплатно

    Опубликовал: fregat | Дата: 31-10-2018, 05:00 | .torrent скачали: 1

    Heilung - Discography 3 Releases (2015-2018) [FLAC|Lossless|tracks+.cue, tracks] &ltNeofolk, Experimental, Ritual Folk, Rune Singing, Shamanic>Год выпуска : 2015
    Жанр : Neofolk/Experimental/Rune Singing/Pitual Folk/Shamanic
    Продолжительность : 01: 11: 51
    Треклист :
    01. Alfadhirhaiti (06: 48)
    02. Krigsgaldr (08: 58)
    03. Hakkerskaldyr (02: 09)
    04. Schlammschlacht (05: 50)
    05. Carpathian Forest (02: 34)
    06. Fylgija Ear (08: 34)
    07. Futhorck (10: 45)
    08. In Maidjan (12: 32)
    09. Afhomon (13: 41)

    -----------------------
    DON'T MODIFY THIS FILE
    -----------------------
    PERFORMER: auCDtect Task Manager, ver. 1.6.0 RC1 build 1.6.0.1
    Copyright (c) 2008-2010 y-soft. All rights reserved
    http://y-soft.org
    ANALYZER: auCDtect: CD records authenticity detector, version 0.8.2
    Copyright (c) 2004 Oleg Berngardt. All rights reserved.
    Copyright (c) 2004 Alexander Djourik. All rights reserved.
    FILE: 09. Afhomon.flac
    Size: 74395038 Hash: B09442003D2F54FE3B372D9938862E4F Accuracy: -m0
    Conclusion: CDDA 100%
    Signature: 742B91056D37E3852E8449B9ED50C0DA782F820E
    FILE: 08. In Maidjan.flac
    Size: 63803743 Hash: 46BAEADBB93A3375A3FA078807D79B34 Accuracy: -m0
    Conclusion: CDDA 100%
    Signature: 0822A8B4FC1EF2DE83A669EDBA08A8AF1CF5393F
    FILE: 07. Futhorck.flac
    Size: 61934671 Hash: 19E1144058D52D3CF895E03E20CEA03B Accuracy: -m0
    Conclusion: CDDA 99%
    Signature: 5E9CC68931433544F6E14B61DF89B1CB108E82B9
    FILE: 06. Fylgija Ear.flac
    Size: 42875581 Hash: 1720030AC9C8BBD0A7A3FEE818A1A8EB Accuracy: -m0
    Conclusion: CDDA 100%
    Signature: EEFBA444C55D0E8D78F59C80A2D6FF2FA9159798
    FILE: 05. Carpathian Forest.flac
    Size: 10472768 Hash: F60A9AA8CA7F976542AEAAF568F5217A Accuracy: -m0
    Conclusion: CDDA 100%
    Signature: 65FCB233371110C930CF26D448D89B21E796A8BA
    FILE: 04. Schlammschlacht.flac
    Size: 36229252 Hash: E314D5CDA89EC69D2AFDEF3931225DE3 Accuracy: -m0
    Conclusion: CDDA 99%
    Signature: 4F56AA4D65E6A9EF1CAC94BEF5B5DFC454E23EB9
    FILE: 03. Hakkerskaldyr.flac
    Size: 11771812 Hash: 37464752843A66A2F38B56679A9E2E9B Accuracy: -m0
    Conclusion: CDDA 100%
    Signature: 5424117BEF7925A7BD3C74CD914F2632E4A5FF15
    FILE: 02. Krigsgaldr.flac
    Size: 51982618 Hash: 92816113098D2DF8E53A495EDA38B2BD Accuracy: -m0
    Conclusion: CDDA 100%
    Signature: AF6263728841FC608DF13C0FE4E6C17A1629912B
    FILE: 01. Alfadhirhaiti.flac
    Size: 40360127 Hash: 3A8176C939A3E9C211B42D1615ABCAE9 Accuracy: -m0
    Conclusion: CDDA 100%
    Signature: FB4168D36814CE055D0B88CF3A6D7D98D02189A4
    Год выпуска : 2017
    Жанр : Neofolk/Experimental/Rune Singing/Pitual Folk/Shamanic
    Продолжительность : 01: 15: 39
    Треклист :
    01. Opening Ceremony (00: 57)
    02. In Maidjan (Live) (12: 42)
    03. Alfadhirhaiti (Live) (07: 18)
    04. Carpathian Forest (Live) (04: 37)
    05. Krigsgaldr (Live) (09: 48)
    06. Hakkerskaldyr (Live) (02: 50)
    07. Fylgija Ear/Futhorck (Live) (12: 45)
    08. Othan (Live) (10: 34)
    09. Hamrer Hippyer (Live) (14: 08)

    foobar2000 1.1/Dynamic Range Meter 1.1.1
    log date: 2018-10-30 18: 27: 33
    --------------------------------------------------------------------------------
    Analyzed: Heilung/LIFA
    --------------------------------------------------------------------------------
    DR Peak RMS Duration Track
    --------------------------------------------------------------------------------
    DR16 -5.49 dB -26.62 dB 0: 57 ?-Opening Ceremony
    DR5 -0.40 dB -7.32 dB 12: 42 ?-In Maidjan (Live)
    DR5 -0.40 dB -6.91 dB 7: 18 ?-Alfadhirhaiti (Live)
    DR11 -0.41 dB -15.44 dB 4: 37 ?-Carpathian Forest (Live)
    DR5 -0.40 dB -7.27 dB 9: 48 ?-Krigsgaldr (Live)
    DR8 -0.41 dB -11.20 dB 2: 50 ?-Hakkerskaldyr (Live)
    DR5 -0.40 dB -7.54 dB 12: 45 ?-Fylgija Ear/Futhorck (Live)
    DR5 -0.40 dB -8.11 dB 10: 34 ?-Othan (Live)
    DR4 -0.40 dB -6.17 dB 14: 08 ?-Hamrer Hippyer (Live)
    --------------------------------------------------------------------------------
    Number of tracks: 9
    Official DR value: DR7
    Samplerate: 44100 Hz
    Channels: 2
    Bits per sample: 24
    Bitrate: 1532 kbps
    Codec: FLAC
    ================================================================================
    Год выпуска : 2018
    Жанр : Neofolk/Experimental/Rune Singing/Pitual Folk/Shamanic
    Продолжительность : 01: 15: 33
    Треклист :
    01. Opening Ceremony (00: 57)
    02. In Maidjan (12: 38)
    03. Alfadhirhaiti (07: 16)
    04. Carpathian Forest (04: 37)
    05. Krigsgaldr (09: 48)
    06. Hakkerskaldyr (02: 50)
    07. Fylgija Ear/Futhorck (12: 45)
    08. Othan (10: 34)
    09. Hamrer Hippyer (14: 08)

    Exact Audio Copy V1.3 from 2. September 2016
    EAC extraction logfile from 12. September 2018, 22: 58
    Heilung/LIFA (Heilung Live At Castlefest)
    Used drive : hp DVD A DH16AAL Adapter: 1 ID: 0
    Read mode : Secure
    Utilize accurate stream : Yes
    Defeat audio cache : Yes
    Make use of C2 pointers : No
    Read offset correction : 6
    Overread into Lead-In and Lead-Out : No
    Fill up missing offset samples with silence : Yes
    Delete leading and trailing silent blocks : No
    Null samples used in CRC calculations : Yes
    Used interface : Native Win32 interface for Win NT 2000
    Gap handling : Appended to previous track
    Used output format : User Defined Encoder
    Selected bitrate : 1024 kBit/s
    Quality : High
    Add ID3 tag : No
    Command line compressor : C: Program Files (x86)Exact Audio CopyFlac lac.exe
    Additional command line options : -8 -e -p -V -T ARTIST=%artist% -T TITLE=%title% -T ALBUM=%albumtitle% -T DATE=%year% -T TRACKNUMBER=%tracknr% -T GENRE=%genre% -T PERFORMER=%albuminterpret% -T COMPOSER=%composer% %haslyrics%--tag-from-file=LYRICS=%lyricsfile%%haslyrics% -T ALBUMARTIST=%albumartist% -T DISCNUMBER=%cdnumber% -T TOTALDISCS=%totalcds% -T TOTALTRACKS=%numtracks% -T COMMENT=%comment% %source% -o %dest%
    TOC of the extracted CD
    Track | Start | Length | Start sector | End sector
    ---------------------------------------------------------
    1 | 0: 00.00 | 0: 56.65 | 0 | 4264
    2 | 0: 56.65 | 12: 38.27 | 4265 | 61141
    3 | 13: 35.17 | 7: 16.11 | 61142 | 93852
    4 | 20: 51.28 | 4: 36.60 | 93853 | 114612
    5 | 25: 28.13 | 9: 48.37 | 114613 | 158749
    6 | 35: 16.50 | 2: 50.05 | 158750 | 171504
    7 | 38: 06.55 | 12: 45.29 | 171505 | 228908
    8 | 50: 52.09 | 10: 34.36 | 228909 | 276494
    9 | 61: 26.45 | 14: 08.11 | 276495 | 340105
    Track 1
    Filename C: EACHeilung - Lifa (Heilung Live At Castlefest) (2018) {SOM 460D, CD} FLAC. Opening Ceremony.wav
    Pre-gap length 0: 00: 02.00
    Peak level 53.9 %
    Extraction speed 2.5 X
    Track quality 100.0 %
    Test CRC BEA43493
    Copy CRC BEA43493
    Accurately ripped (confidence 5) C84B50F8 (AR v2)
    Copy OK
    Track 2
    Filename C: EACHeilung - Lifa (Heilung Live At Castlefest) (2018) {SOM 460D, CD} FLAC. In Maidjan.wav
    Peak level 93.6 %
    Extraction speed 4.7 X
    Track quality 100.0 %
    Test CRC ECBF2F2B
    Copy CRC ECBF2F2B
    Accurately ripped (confidence 5) 11569B06 (AR v2)
    Copy OK
    Track 3
    Filename C: EACHeilung - Lifa (Heilung Live At Castlefest) (2018) {SOM 460D, CD} FLAC. Alfadhirhaiti.wav
    Pre-gap length 0: 00: 00.01
    Peak level 93.6 %
    Extraction speed 5.4 X
    Track quality 100.0 %
    Test CRC 7A0301A9
    Copy CRC 7A0301A9
    Accurately ripped (confidence 5) 0B2F26F7 (AR v2)
    Copy OK
    Track 4
    Filename C: EACHeilung - Lifa (Heilung Live At Castlefest) (2018) {SOM 460D, CD} FLAC. Carpathian Forest.wav
    Pre-gap length 0: 00: 00.01
    Peak level 93.4 %
    Extraction speed 5.6 X
    Track quality 100.0 %
    Test CRC 7242490B
    Copy CRC 7242490B
    Accurately ripped (confidence 5) D9BB5865 (AR v2)
    Copy OK
    Track 5
    Filename C: EACHeilung - Lifa (Heilung Live At Castlefest) (2018) {SOM 460D, CD} FLAC. Krigsgaldr.wav
    Pre-gap length 0: 00: 00.01
    Peak level 93.5 %
    Extraction speed 6.5 X
    Track quality 100.0 %
    Test CRC D122945F
    Copy CRC D122945F
    Accurately ripped (confidence 5) 683E85D4 (AR v2)
    Copy OK
    Track 6
    Filename C: EACHeilung - Lifa (Heilung Live At Castlefest) (2018) {SOM 460D, CD} FLAC. Hakkerskaldyr.wav
    Pre-gap length 0: 00: 00.01
    Peak level 93.5 %
    Extraction speed 6.0 X
    Track quality 100.0 %
    Test CRC 82B16907
    Copy CRC 82B16907
    Accurately ripped (confidence 5) 07632F39 (AR v2)
    Copy OK
    Track 7
    Filename C: EACHeilung - Lifa (Heilung Live At Castlefest) (2018) {SOM 460D, CD} FLAC. Fylgija Ear , Futhorck.wav
    Pre-gap length 0: 00: 00.01
    Peak level 93.6 %
    Extraction speed 7.4 X
    Track quality 100.0 %
    Test CRC 22516594
    Copy CRC 22516594
    Accurately ripped (confidence 5) 456D5F25 (AR v2)
    Copy OK
    Track 8
    Filename C: EACHeilung - Lifa (Heilung Live At Castlefest) (2018) {SOM 460D, CD} FLAC8. Othan.wav
    Pre-gap length 0: 00: 00.01
    Peak level 93.7 %
    Extraction speed 8.0 X
    Track quality 100.0 %
    Test CRC B8002E72
    Copy CRC B8002E72
    Accurately ripped (confidence 5) 441AAC89 (AR v2)
    Copy OK
    Track 9
    Filename C: EACHeilung - Lifa (Heilung Live At Castlefest) (2018) {SOM 460D, CD} FLAC9. Hamrer Hippyer.wav
    Pre-gap length 0: 00: 00.01
    Peak level 93.6 %
    Extraction speed 8.7 X
    Track quality 100.0 %
    Test CRC 9E7CBF8D
    Copy CRC 9E7CBF8D
    Accurately ripped (confidence 5) ACAB6D2E (AR v2)
    Copy OK
    All tracks accurately ripped
    No errors occurred
    End of status report
    ---- CUETools DB Plugin V2.1.6
    CTDB TOCID: L0SXTZpQ1uVhgzGVwoSyLEXA_ak- found
    Submit result: already submitted
    Track | CTDB Status
    1 | (33/33) Accurately ripped
    2 | (33/33) Accurately ripped
    3 | (33/33) Accurately ripped
    4 | (33/33) Accurately ripped
    5 | (33/33) Accurately ripped
    6 | (33/33) Accurately ripped
    7 | (33/33) Accurately ripped
    8 | (33/33) Accurately ripped
    9 | (33/33) Accurately ripped
    ==== Log checksum E1AEB9B90B57791F0B166B0E4D7C4DC5A2CE95A039F926C5A535082C05C504EC ====

    REM GENRE NeoFolk
    REM DATE 2018
    REM DISCID 7811B609
    REM COMMENT ExactAudioCopy v1.3
    CATALOG 0822603146028
    PERFORMER Heilung
    TITLE LIFA (Heilung Live At Castlefest)
    REM COMPOSER
    FILE 01. Opening Ceremony.wav WAVE
    TRACK 01 AUDIO
    TITLE Opening Ceremony
    PERFORMER Heilung
    REM COMPOSER
    INDEX 01 00: 00: 00
    FILE 02. In Maidjan.wav WAVE
    TRACK 02 AUDIO
    TITLE In Maidjan
    PERFORMER Heilung
    REM COMPOSER
    INDEX 01 00: 00: 00
    TRACK 03 AUDIO
    TITLE Alfadhirhaiti
    PERFORMER Heilung
    REM COMPOSER
    INDEX 00 12: 38: 26
    FILE 03. Alfadhirhaiti.wav WAVE
    INDEX 01 00: 00: 00
    TRACK 04 AUDIO
    TITLE Carpathian Forest
    PERFORMER Heilung
    REM COMPOSER
    INDEX 00 07: 16: 10
    FILE 04. Carpathian Forest.wav WAVE
    INDEX 01 00: 00: 00
    TRACK 05 AUDIO
    TITLE Krigsgaldr
    PERFORMER Heilung
    REM COMPOSER
    INDEX 00 04: 36: 59
    FILE 05. Krigsgaldr.wav WAVE
    INDEX 01 00: 00: 00
    TRACK 06 AUDIO
    TITLE Hakkerskaldyr
    PERFORMER Heilung
    REM COMPOSER
    INDEX 00 09: 48: 36
    FILE 06. Hakkerskaldyr.wav WAVE
    INDEX 01 00: 00: 00
    TRACK 07 AUDIO
    TITLE Fylgija Ear/Futhorck
    PERFORMER Heilung
    REM COMPOSER
    INDEX 00 02: 50: 04
    FILE 07. Fylgija Ear , Futhorck.wav WAVE
    INDEX 01 00: 00: 00
    TRACK 08 AUDIO
    TITLE Othan
    PERFORMER Heilung
    REM COMPOSER
    INDEX 00 12: 45: 28
    FILE 08. Othan.wav WAVE
    INDEX 01 00: 00: 00
    TRACK 09 AUDIO
    TITLE Hamrer Hippyer
    PERFORMER Heilung
    REM COMPOSER
    INDEX 00 10: 34: 35
    FILE 09. Hamrer Hippyer.wav WAVE
    INDEX 01 00: 00: 00


    Heilung - Discography 3 Releases (2015-2018) [FLAC|Lossless|tracks+.cue, tracks] <Neofolk, Experimental, Ritual Folk, Rune Singing, Shamanic>
    Рейтинг →
     (голосов: 1, оценка 5/5, голосовать можно 1 раз )

    Другие торренты по теме:



      Комментарии (0):

      Информация

      Информация

        Посетители, находящиеся в группе Гости, не могут оставлять комментарии в данной новости.

        ↓ Меню




        ↓ Опрос

        Вы добавили сайт в закладки?
        Да
        Нет


        Top 10 за месяц (Музыка)