.
Авторизация | Регистрация
Хочешь лучшие торренты? Добавь свой email!
Добавить

Торрент скачать бесплатно

  • support: webmaster@btracker.club
» » Rascal Flatts - Greatest Hits Volume 1 (2008) [FLAC|Lossless|tracks + .cue] <Country Rock> торрент скачать бесплатно


    Rascal Flatts - Greatest Hits Volume 1 (2008) [FLAC|Lossless|tracks + .cue] <Country Rock> торрент скачать бесплатно

    Опубликовал: fregat | Дата: 31-10-2018, 05:00 | .torrent скачали: 0

    Rascal Flatts - Greatest Hits Volume 1 (2008) [FLAC|Lossless|tracks + .cue] &ltCountry Rock>Жанр: Country Rock
    Издание: Lyric Street Records - D000276402
    Продолжительность: 00: 51: 56
    Кодек: FLAC
    Битрейт: Lossless
    Тип рипа: tracks + .cue

    Треклист

    01. Prayin' For Daylight (3: 38)
    02. I'm Movin' On (3: 52)
    03. These Days (4: 16)
    04. I Melt (3: 55)
    05. Mayberry (4: 34)
    06. Feels Like Today (3: 21)
    07. Bless The Broken Road (3: 48)
    08. Fast Cars And Freedom (4: 23)
    09. Skin (Sarabeth) (4: 22)
    10. What Hurts The Most (3: 35)
    11. My Wish (4: 07)
    12. Stand (3: 28)
    13. Life Is A Highway (4: 36)

    X Lossless Decoder version 20161007 (149.3)
    XLD extraction logfile from 2017-04-17 19: 34: 46 -0600
    Rascal Flatts/Greatest Hits Volume 1
    Used drive : HL-DT-ST DVDRW GS23N (revision SB03)
    Media type : Pressed CD
    Ripper mode : XLD Secure Ripper
    Disable audio cache : OK for the drive with a cache less than 1375KiB
    Make use of C2 pointers : NO
    Read offset correction : 667
    Max retry count : 20
    Gap status : Analyzed, Appended (except HTOA)
    TOC of the extracted CD
    Track | Start | Length | Start sector | End sector
    ---------------------------------------------------------
    1 | 00: 00: 00 | 03: 37: 73 | 0 | 16347
    2 | 03: 37: 73 | 03: 52: 23 | 16348 | 33770
    3 | 07: 30: 21 | 04: 15: 61 | 33771 | 52956
    4 | 11: 46: 07 | 03: 55: 11 | 52957 | 70592
    5 | 15: 41: 18 | 04: 34: 20 | 70593 | 91162
    6 | 20: 15: 38 | 03: 21: 27 | 91163 | 106264
    7 | 23: 36: 65 | 03: 48: 20 | 106265 | 123384
    8 | 27: 25: 10 | 04: 22: 65 | 123385 | 143099
    9 | 31: 48: 00 | 04: 21: 64 | 143100 | 162738
    10 | 36: 09: 64 | 03: 34: 55 | 162739 | 178843
    11 | 39: 44: 44 | 04: 06: 45 | 178844 | 197338
    12 | 43: 51: 14 | 03: 28: 35 | 197339 | 212973
    13 | 47: 19: 49 | 04: 36: 20 | 212974 | 233693
    List of alternate offset correction values
    # | Absolute | Relative | Confidence
    ------------------------------------------
    1 | 759 | 92 | 72
    AccurateRip Summary (DiscID: 0018c484-00f839d8-a90c2b0d)
    Track 01 : OK (v1+v2, confidence 42/114)
    Track 02 : OK (v1+v2, confidence 43/112)
    Track 03 : OK (v1+v2, confidence 42/112)
    Track 04 : OK (v1+v2, confidence 42/112)
    Track 05 : OK (v1+v2, confidence 42/113)
    Track 06 : OK (v1+v2, confidence 42/112)
    Track 07 : OK (v1+v2, confidence 41/109)
    Track 08 : OK (v1+v2, confidence 42/112)
    Track 09 : OK (v1+v2, confidence 42/112)
    Track 10 : OK (v1+v2, confidence 41/110)
    Track 11 : OK (v1+v2, confidence 41/110)
    Track 12 : OK (v1+v2, confidence 41/112)
    Track 13 : OK (v1+v2, confidence 42/112)
    -All tracks accurately ripped.
    All Tracks
    Album gain : -10.29 dB
    Peak : 1.000000
    Statistics
    Read error : 0
    Jitter error (maybe fixed) : 0
    Retry sector count : 0
    Damaged sector count : 0
    Track 01
    Filename : /Volumes/NotWhatLibrary/NEW/Rascal Flatts/Greatest Hits Volume 1 (2008) 0050087130275 FLAC/01 Rascal Flatts - Prayin' For Daylight.flac
    Pre-gap length : 00: 02: 00
    Track gain : -10.60 dB
    Peak : 0.881073
    CRC32 hash (test run) : 61400CDC
    CRC32 hash : 61400CDC
    CRC32 hash (skip zero) : 336847C8
    AccurateRip v1 signature : 44D39223
    AccurateRip v2 signature : EEC307F9
    -Accurately ripped (v1+v2, confidence 8+34/114)
    Statistics
    Read error : 0
    Jitter error (maybe fixed) : 0
    Retry sector count : 0
    Damaged sector count : 0
    Track 02
    Filename : /Volumes/NotWhatLibrary/NEW/Rascal Flatts/Greatest Hits Volume 1 (2008) 0050087130275 FLAC/02 Rascal Flatts - I'm Movin' On.flac
    Pre-gap length : 00: 01: 22
    Track gain : -10.59 dB
    Peak : 0.881073
    CRC32 hash (test run) : 5B809D67
    CRC32 hash : 5B809D67
    CRC32 hash (skip zero) : 59F00889
    AccurateRip v1 signature : 50B96BE9
    AccurateRip v2 signature : 982F1317
    -Accurately ripped (v1+v2, confidence 8+35/112)
    Statistics
    Read error : 0
    Jitter error (maybe fixed) : 0
    Retry sector count : 0
    Damaged sector count : 0
    Track 03
    Filename : /Volumes/NotWhatLibrary/NEW/Rascal Flatts/Greatest Hits Volume 1 (2008) 0050087130275 FLAC/03 Rascal Flatts - These Days.flac
    Track gain : -11.14 dB
    Peak : 0.998871
    CRC32 hash (test run) : 8021AF94
    CRC32 hash : 8021AF94
    CRC32 hash (skip zero) : 0C3AEEB7
    AccurateRip v1 signature : 8AD1CE08
    AccurateRip v2 signature : 5267F7D2
    -Accurately ripped (v1+v2, confidence 8+34/112)
    Statistics
    Read error : 0
    Jitter error (maybe fixed) : 0
    Retry sector count : 0
    Damaged sector count : 0
    Track 04
    Filename : /Volumes/NotWhatLibrary/NEW/Rascal Flatts/Greatest Hits Volume 1 (2008) 0050087130275 FLAC/04 Rascal Flatts - I Melt.flac
    Pre-gap length : 00: 01: 22
    Track gain : -10.92 dB
    Peak : 0.998871
    CRC32 hash (test run) : CE69D3F6
    CRC32 hash : CE69D3F6
    CRC32 hash (skip zero) : 76680563
    AccurateRip v1 signature : 71DB6032
    AccurateRip v2 signature : C57F3EDB
    -Accurately ripped (v1+v2, confidence 8+34/112)
    Statistics
    Read error : 0
    Jitter error (maybe fixed) : 0
    Retry sector count : 0
    Damaged sector count : 0
    Track 05
    Filename : /Volumes/NotWhatLibrary/NEW/Rascal Flatts/Greatest Hits Volume 1 (2008) 0050087130275 FLAC/05 Rascal Flatts - Mayberry.flac
    Pre-gap length : 00: 00: 50
    Track gain : -10.88 dB
    Peak : 0.998871
    CRC32 hash (test run) : E4B504CA
    CRC32 hash : E4B504CA
    CRC32 hash (skip zero) : 1B565404
    AccurateRip v1 signature : A43610E8
    AccurateRip v2 signature : 0FD8CD2D
    -Accurately ripped (v1+v2, confidence 8+34/113)
    Statistics
    Read error : 0
    Jitter error (maybe fixed) : 0
    Retry sector count : 0
    Damaged sector count : 0
    Track 06
    Filename : /Volumes/NotWhatLibrary/NEW/Rascal Flatts/Greatest Hits Volume 1 (2008) 0050087130275 FLAC/06 Rascal Flatts - Feels Like Today.flac
    Pre-gap length : 00: 01: 18
    Track gain : -10.37 dB
    Peak : 0.987213
    CRC32 hash (test run) : 9C347EAD
    CRC32 hash : 9C347EAD
    CRC32 hash (skip zero) : 7B949C53
    AccurateRip v1 signature : 611A1AB4
    AccurateRip v2 signature : EDD1DFBF
    -Accurately ripped (v1+v2, confidence 8+34/112)
    Statistics
    Read error : 0
    Jitter error (maybe fixed) : 0
    Retry sector count : 0
    Damaged sector count : 0
    Track 07
    Filename : /Volumes/NotWhatLibrary/NEW/Rascal Flatts/Greatest Hits Volume 1 (2008) 0050087130275 FLAC/07 Rascal Flatts - Bless The Broken Road.flac
    Pre-gap length : 00: 00: 67
    Track gain : -9.24 dB
    Peak : 0.987213
    CRC32 hash (test run) : 4A64456F
    CRC32 hash : 4A64456F
    CRC32 hash (skip zero) : 95B747CD
    AccurateRip v1 signature : 423E0CDC
    AccurateRip v2 signature : CE54AF51
    -Accurately ripped (v1+v2, confidence 8+33/109)
    Statistics
    Read error : 0
    Jitter error (maybe fixed) : 0
    Retry sector count : 0
    Damaged sector count : 0
    Track 08
    Filename : /Volumes/NotWhatLibrary/NEW/Rascal Flatts/Greatest Hits Volume 1 (2008) 0050087130275 FLAC/08 Rascal Flatts - Fast Cars And Freedom.flac
    Pre-gap length : 00: 00: 62
    Track gain : -10.07 dB
    Peak : 0.987213
    CRC32 hash (test run) : 4BBDB36F
    CRC32 hash : 4BBDB36F
    CRC32 hash (skip zero) : 57C49C0B
    AccurateRip v1 signature : F9183501
    AccurateRip v2 signature : DA72344D
    -Accurately ripped (v1+v2, confidence 8+34/112)
    Statistics
    Read error : 0
    Jitter error (maybe fixed) : 0
    Retry sector count : 0
    Damaged sector count : 0
    Track 09
    Filename : /Volumes/NotWhatLibrary/NEW/Rascal Flatts/Greatest Hits Volume 1 (2008) 0050087130275 FLAC/09 Rascal Flatts - Skin (Sarabeth).flac
    Pre-gap length : 00: 01: 07
    Track gain : -7.34 dB
    Peak : 0.987213
    CRC32 hash (test run) : 2B18C6E3
    CRC32 hash : 2B18C6E3
    CRC32 hash (skip zero) : EEBEC7CC
    AccurateRip v1 signature : F9C86C37
    AccurateRip v2 signature : 6D960AB2
    -Accurately ripped (v1+v2, confidence 8+34/112)
    Statistics
    Read error : 0
    Jitter error (maybe fixed) : 0
    Retry sector count : 0
    Damaged sector count : 0
    Track 10
    Filename : /Volumes/NotWhatLibrary/NEW/Rascal Flatts/Greatest Hits Volume 1 (2008) 0050087130275 FLAC/10 Rascal Flatts - What Hurts The Most.flac
    Pre-gap length : 00: 00: 44
    Track gain : -9.01 dB
    Peak : 1.000000
    CRC32 hash (test run) : F1CDD52E
    CRC32 hash : F1CDD52E
    CRC32 hash (skip zero) : 2A84E8D1
    AccurateRip v1 signature : F84B7A34
    AccurateRip v2 signature : 7B5FAFE1
    -Accurately ripped (v1+v2, confidence 8+33/110)
    Statistics
    Read error : 0
    Jitter error (maybe fixed) : 0
    Retry sector count : 0
    Damaged sector count : 0
    Track 11
    Filename : /Volumes/NotWhatLibrary/NEW/Rascal Flatts/Greatest Hits Volume 1 (2008) 0050087130275 FLAC/11 Rascal Flatts - My Wish.flac
    Pre-gap length : 00: 01: 26
    Track gain : -9.74 dB
    Peak : 1.000000
    CRC32 hash (test run) : F673C733
    CRC32 hash : F673C733
    CRC32 hash (skip zero) : 71B16C7C
    AccurateRip v1 signature : D9540A68
    AccurateRip v2 signature : 8524D509
    -Accurately ripped (v1+v2, confidence 8+33/110)
    Statistics
    Read error : 0
    Jitter error (maybe fixed) : 0
    Retry sector count : 0
    Damaged sector count : 0
    Track 12
    Filename : /Volumes/NotWhatLibrary/NEW/Rascal Flatts/Greatest Hits Volume 1 (2008) 0050087130275 FLAC/12 Rascal Flatts - Stand.flac
    Pre-gap length : 00: 00: 33
    Track gain : -9.56 dB
    Peak : 1.000000
    CRC32 hash (test run) : 29A67DEB
    CRC32 hash : 29A67DEB
    CRC32 hash (skip zero) : 5641B545
    AccurateRip v1 signature : 2E18DCEF
    AccurateRip v2 signature : 4265629C
    -Accurately ripped (v1+v2, confidence 8+33/112)
    Statistics
    Read error : 0
    Jitter error (maybe fixed) : 0
    Retry sector count : 0
    Damaged sector count : 0
    Track 13
    Filename : /Volumes/NotWhatLibrary/NEW/Rascal Flatts/Greatest Hits Volume 1 (2008) 0050087130275 FLAC/13 Rascal Flatts - Life Is A Highway.flac
    Pre-gap length : 00: 00: 40
    Track gain : -9.88 dB
    Peak : 1.000000
    CRC32 hash (test run) : 23067CFF
    CRC32 hash : 23067CFF
    CRC32 hash (skip zero) : EBD8C6C6
    AccurateRip v1 signature : D8639FE3
    AccurateRip v2 signature : C1EE0B20
    -Accurately ripped (v1+v2, confidence 8+34/112)
    Statistics
    Read error : 0
    Jitter error (maybe fixed) : 0
    Retry sector count : 0
    Damaged sector count : 0
    No errors occurred
    End of status report
    -----BEGIN XLD SIGNATURE-----
    CkKAAAwtotqMBni4__7KGXI1Lg19Xbi_6YrwtubY_tfTaF1VX451BSULIOxKmSoz3rE3_nJO6TgP7ca4QMVW4a64LNHN8H8H8.Twgx4
    -----END XLD SIGNATURE-----

    TITLE Greatest Hits Volume 1
    PERFORMER Rascal Flatts
    CATALOG 0050087130275
    REM GENRE Country
    REM DATE 2008
    REM DISCID A90C2B0D
    REM REPLAYGAIN_ALBUM_GAIN -10.29 dB
    REM REPLAYGAIN_ALBUM_PEAK 1.000000
    FILE 01 Rascal Flatts - Prayin' For Daylight.flac WAVE
    TRACK 01 AUDIO
    TITLE Prayin' For Daylight
    PERFORMER Rascal Flatts
    ISRC USL2S0820614
    REM REPLAYGAIN_TRACK_GAIN -10.60 dB
    REM REPLAYGAIN_TRACK_PEAK 0.881073
    INDEX 01 00: 00: 00
    TRACK 02 AUDIO
    TITLE I'm Movin' On
    PERFORMER Rascal Flatts
    ISRC USL2S0820615
    REM REPLAYGAIN_TRACK_GAIN -10.59 dB
    REM REPLAYGAIN_TRACK_PEAK 0.881073
    INDEX 00 03: 36: 51
    FILE 02 Rascal Flatts - I'm Movin' On.flac WAVE
    INDEX 01 00: 00: 00
    FILE 03 Rascal Flatts - These Days.flac WAVE
    TRACK 03 AUDIO
    TITLE These Days
    PERFORMER Rascal Flatts
    ISRC USL2S0820616
    REM REPLAYGAIN_TRACK_GAIN -11.14 dB
    REM REPLAYGAIN_TRACK_PEAK 0.998871
    INDEX 01 00: 00: 00
    TRACK 04 AUDIO
    TITLE I Melt
    PERFORMER Rascal Flatts
    ISRC USL2S0820617
    REM REPLAYGAIN_TRACK_GAIN -10.92 dB
    REM REPLAYGAIN_TRACK_PEAK 0.998871
    INDEX 00 04: 14: 39
    FILE 04 Rascal Flatts - I Melt.flac WAVE
    INDEX 01 00: 00: 00
    TRACK 05 AUDIO
    TITLE Mayberry
    PERFORMER Rascal Flatts
    ISRC USL2S0820618
    REM REPLAYGAIN_TRACK_GAIN -10.88 dB
    REM REPLAYGAIN_TRACK_PEAK 0.998871
    INDEX 00 03: 54: 36
    FILE 05 Rascal Flatts - Mayberry.flac WAVE
    INDEX 01 00: 00: 00
    TRACK 06 AUDIO
    TITLE Feels Like Today
    PERFORMER Rascal Flatts
    ISRC USL2S0820619
    REM REPLAYGAIN_TRACK_GAIN -10.37 dB
    REM REPLAYGAIN_TRACK_PEAK 0.987213
    INDEX 00 04: 33: 02
    FILE 06 Rascal Flatts - Feels Like Today.flac WAVE
    INDEX 01 00: 00: 00
    TRACK 07 AUDIO
    TITLE Bless The Broken Road
    PERFORMER Rascal Flatts
    ISRC USL2S0820620
    REM REPLAYGAIN_TRACK_GAIN -9.24 dB
    REM REPLAYGAIN_TRACK_PEAK 0.987213
    INDEX 00 03: 20: 35
    FILE 07 Rascal Flatts - Bless The Broken Road.flac WAVE
    INDEX 01 00: 00: 00
    TRACK 08 AUDIO
    TITLE Fast Cars And Freedom
    PERFORMER Rascal Flatts
    ISRC USL2S0820621
    REM REPLAYGAIN_TRACK_GAIN -10.07 dB
    REM REPLAYGAIN_TRACK_PEAK 0.987213
    INDEX 00 03: 47: 34
    FILE 08 Rascal Flatts - Fast Cars And Freedom.flac WAVE
    INDEX 01 00: 00: 00
    TRACK 09 AUDIO
    TITLE Skin (Sarabeth)
    PERFORMER Rascal Flatts
    ISRC USL2S0820622
    REM REPLAYGAIN_TRACK_GAIN -7.34 dB
    REM REPLAYGAIN_TRACK_PEAK 0.987213
    INDEX 00 04: 21: 58
    FILE 09 Rascal Flatts - Skin (Sarabeth).flac WAVE
    INDEX 01 00: 00: 00
    TRACK 10 AUDIO
    TITLE What Hurts The Most
    PERFORMER Rascal Flatts
    ISRC USL2S0820623
    REM REPLAYGAIN_TRACK_GAIN -9.01 dB
    REM REPLAYGAIN_TRACK_PEAK 1.000000
    INDEX 00 04: 21: 20
    FILE 10 Rascal Flatts - What Hurts The Most.flac WAVE
    INDEX 01 00: 00: 00
    TRACK 11 AUDIO
    TITLE My Wish
    PERFORMER Rascal Flatts
    ISRC USL2S0820624
    REM REPLAYGAIN_TRACK_GAIN -9.74 dB
    REM REPLAYGAIN_TRACK_PEAK 1.000000
    INDEX 00 03: 33: 29
    FILE 11 Rascal Flatts - My Wish.flac WAVE
    INDEX 01 00: 00: 00
    TRACK 12 AUDIO
    TITLE Stand
    PERFORMER Rascal Flatts
    ISRC USL2S0820625
    REM REPLAYGAIN_TRACK_GAIN -9.56 dB
    REM REPLAYGAIN_TRACK_PEAK 1.000000
    INDEX 00 04: 06: 12
    FILE 12 Rascal Flatts - Stand.flac WAVE
    INDEX 01 00: 00: 00
    TRACK 13 AUDIO
    TITLE Life Is A Highway
    PERFORMER Rascal Flatts
    ISRC USL2S0820626
    REM REPLAYGAIN_TRACK_GAIN -9.88 dB
    REM REPLAYGAIN_TRACK_PEAK 1.000000
    INDEX 00 03: 27: 70
    FILE 13 Rascal Flatts - Life Is A Highway.flac WAVE
    INDEX 01 00: 00: 00

    -----------------------
    DON'T MODIFY THIS FILE
    -----------------------
    PERFORMER: auCDtect Task Manager, ver. 1.6.0 RC1 build 1.6.0.1
    Copyright (c) 2008-2010 y-soft. All rights reserved
    http://y-soft.org
    ANALYZER: auCDtect: CD records authenticity detector, version 0.8.2
    Copyright (c) 2004 Oleg Berngardt. All rights reserved.
    Copyright (c) 2004 Alexander Djourik. All rights reserved.
    FILE: 05 Rascal Flatts - Mayberry.flac
    Size: 34330257 Hash: 297357E59D120EEE219D2827306CD1CB Accuracy: -m0
    Conclusion: CDDA 100%
    Signature: 6E27F601874409158024183D91824ACD24286002
    FILE: 04 Rascal Flatts - I Melt.flac
    Size: 29205487 Hash: 686475640957C16FBE1EE25AC6332028 Accuracy: -m0
    Conclusion: CDDA 99%
    Signature: 106AEAD3779DED29730A6D2D8BAA1C4A6AD0F742
    FILE: 03 Rascal Flatts - These Days.flac
    Size: 31841314 Hash: B1EADB5F1705B38C3ECDE59BFD6BACA3 Accuracy: -m0
    Conclusion: CDDA 100%
    Signature: 969223BA94D05B49F19FD621143DF1D1AC721FDA
    FILE: 02 Rascal Flatts - I'm Movin' On.flac
    Size: 24223454 Hash: A3A5BE7E55C17472E5C58CA5C044C1F7 Accuracy: -m0
    Conclusion: CDDA 100%
    Signature: 61B8127D13BA2134181C28E063302465FAA21B60
    FILE: 01 Rascal Flatts - Prayin' For Daylight.flac
    Size: 28457538 Hash: E7B68E951CB9DF8F01C56825A9AD30AC Accuracy: -m0
    Conclusion: CDDA 100%
    Signature: 7737698B3AD1D0556E3EF52485DE0E2081AA905A
    FILE: 13 Rascal Flatts - Life Is A Highway.flac
    Size: 35596049 Hash: 7779020387F2828B2B302B79E1817A1E Accuracy: -m0
    Conclusion: CDDA 100%
    Signature: A7790B6DF21DF671430FE5157EAC3E5FBC1B0F21
    FILE: 12 Rascal Flatts - Stand.flac
    Size: 26199903 Hash: 590E492E3ECA7E9F541298D6F62D46A3 Accuracy: -m0
    Conclusion: CDDA 99%
    Signature: EFB19FE1DE933628342768E035C6AE224D03EF92
    FILE: 11 Rascal Flatts - My Wish.flac
    Size: 30723056 Hash: 0EABAB3E511AFB2A74A8D05CE119E21B Accuracy: -m0
    Conclusion: MPEG 95%
    Signature: BED2D7E8C52A97EF88D70470961856FCC33AD887
    FILE: 10 Rascal Flatts - What Hurts The Most.flac
    Size: 26285559 Hash: 658705F4884EC1E9BE855FD16F3C67C4 Accuracy: -m0
    Conclusion: CDDA 100%
    Signature: 3A0E230C88E27349F5918CAD41FA6D02ABD0FF34
    FILE: 09 Rascal Flatts - Skin (Sarabeth).flac
    Size: 26500033 Hash: 40D2DEEF1A46B099E097FB6F4E6D9553 Accuracy: -m0
    Conclusion: CDDA 100%
    Signature: B3984B97B562DD7FC76D418543ACF9218FC237AD
    FILE: 08 Rascal Flatts - Fast Cars And Freedom.flac
    Size: 32397401 Hash: 9EA47AB2DDE3773F0150D9955BBDA479 Accuracy: -m0
    Conclusion: CDDA 100%
    Signature: A2AE3E0FF621F6AB4E07944023B533490DE58B1D
    FILE: 07 Rascal Flatts - Bless The Broken Road.flac
    Size: 24943302 Hash: 3A52EFDBD64CFB7EF12EAF5594BAB73E Accuracy: -m0
    Conclusion: CDDA 100%
    Signature: 53100DF650389C8804029CB7FA25709DD806BBD6
    FILE: 06 Rascal Flatts - Feels Like Today.flac
    Size: 24459681 Hash: E1843BE92C4FA71E24E240B3C0E26918 Accuracy: -m0
    Conclusion: CDDA 100%
    Signature: 97457E8246E123CB0B8DABA9CC95C7A710091A6F





    Поглощение/вытеснение
    Только с согласия релизера

    Pashketan


    Rascal Flatts - Greatest Hits Volume 1 (2008) [FLAC|Lossless|tracks + .cue] <Country Rock>
    Рейтинг →
     (голосов: 1, оценка 4/5, голосовать можно 1 раз )

    Другие торренты по теме:

  • Bootleg Rascal - Asleep In The Machine (2016) [FLAC|Lossless|tracks] <Alternative Rock>
  • Seishun Buta Yarou wa Bunny Girl Senpai no Yume o Minai / Rascal Does Not Dream of Bunny Girl Senpai / Эта глупая свинья не понимает мечту девочки-зайки! [2018, TV, 1 из 13] HDTV 720p raw


    • Комментарии (0):

      Информация

      Информация

        Посетители, находящиеся в группе Гости, не могут оставлять комментарии в данной новости.

        ↓ Меню




        ↓ Опрос

        Вы добавили сайт в закладки?
        Да
        Нет


        Top 10 за месяц (Музыка)