.
Авторизация | Регистрация
Хочешь лучшие торренты? Добавь свой email!
Добавить

Торрент скачать бесплатно

  • support: webmaster@btracker.club
» » CiM - Series One (1998) Headspace Recordings (UK) [FLAC|Lossless|tracks|Vinyl-24Bit] <Techno, IDM, Drum & Bass> торрент скачать бесплатно


    CiM - Series One (1998) Headspace Recordings (UK) [FLAC|Lossless|tracks|Vinyl-24Bit] <Techno, IDM, Drum & Bass> торрент скачать бесплатно

    Опубликовал: fregat | Дата: 31-10-2018, 05:00 | .torrent скачали: 0

    CiM - Series One (1998) Headspace Recordings (UK) [FLAC|Lossless|tracks|Vinyl-24Bit] &ltTechno, IDM, Drum & Bass>Жанр: Techno, IDM, Drum Bass
    Издание: Headspace Recordings (UK) - HS-004
    Продолжительность: 00: 21: 48
    Кодек: FLAC
    Битрейт: Lossless|Vinyl-24Bit
    Тип рипа: tracks

    Треклист

    01. Cool Air (05: 56)
    02. Typical (04: 43)
    03. Typical (Morgan Geist Remix) (05: 08)
    04. Lead Point (06: 01)

    foobar2000 1.1/Dynamic Range Meter 1.1.1
    log date: 2018-10-30 23: 00: 50
    --------------------------------------------------------------------------------
    Analyzed: CiM/Series One
    --------------------------------------------------------------------------------
    DR Peak RMS Duration Track
    --------------------------------------------------------------------------------
    DR11 0.00 dB -14.77 dB 5: 56 ?-Cool Air
    DR10 0.00 dB -12.76 dB 4: 43 ?-Typical
    DR15 0.00 dB -17.15 dB 5: 08 ?-Typical (Morgan Geist Remix)
    DR13 0.00 dB -16.37 dB 6: 01 ?-Lead Point
    --------------------------------------------------------------------------------
    Number of tracks: 4
    Official DR value: DR12
    Samplerate: 44100 Hz
    Channels: 2
    Bits per sample: 24
    Bitrate: 1486 kbps
    Codec: FLAC
    ================================================================================


    CiM - Series One (1998) Headspace Recordings (UK) [FLAC|Lossless|tracks|Vinyl-24Bit] <Techno, IDM, Drum & Bass>
    Рейтинг →
     (голосов: 1, оценка 4/5, голосовать можно 1 раз )

    Другие торренты по теме:

  • Aoi Bungaku Series / Blue Literature Series / Классические истории [2009, TV, 12 ep] BDRip 720p Raw+Rus скачать через торрент бесплатно
  • Kino no Tabi: The Beautiful World - The Animated Series | Kino`s Journey: The Beautiful World - The Animated Series | Путешествие Кино: Прекрасный мир [ТВ-2] [2017, TV, 1 из 12] HDTV 720p raw
  • Digital Juice - Matte Magic Series 2 Bundle (Full ISO) скачать через торрент бесплатно
  • Перевозчик (Transporter: The Series) / (Сезон 1, серии 1-12 из 12) BaibaKo (2012) [MP4|720x400] <BDRip H.264> скачать через торрент бесплатно
  • Перевозчик (Transporter: The Series) / (Сезон 1, серии 1-12 из 12) BaibaKo (2012) [MP4|720x400] <BDRip H.264> скачать через торрент бесплатно
  • Перевозчик (Transporter: The Series) / (Сезон 2, серия 1 из 12) BaibaKo (2014) [MP4|720x400] <HDTVRip H.264> скачать через торрент бесплатно
  • Перевозчик / Transporter: The Series (2014) HDTV [1080i] (Сезон 2, серия 1 из 12) BaibaKo (обновляемая)
  • Перевозчик / Transporter: The Series (2014) HDTV [H.264 / 720p-LQ] (Сезон 2, серия 1 из 12) BaibaKo (обновляемая)


    • Комментарии (0):

      Информация

      Информация

        Посетители, находящиеся в группе Гости, не могут оставлять комментарии в данной новости.

        ↓ Меню




        ↓ Опрос

        Вы добавили сайт в закладки?
        Да
        Нет


        Top 10 за месяц (Музыка)