.
Авторизация | Регистрация
Хочешь лучшие торренты? Добавь свой email!
Добавить

Торрент скачать бесплатно

  • support: webmaster@btracker.club
» » Tim Hecker - Konoyo (2018) Kranky [FLAC|Lossless|tracks+.cue] <Ambient, Drone, Experimental> торрент скачать бесплатно


    Tim Hecker - Konoyo (2018) Kranky [FLAC|Lossless|tracks+.cue] <Ambient, Drone, Experimental> торрент скачать бесплатно

    Опубликовал: fregat | Дата: 30-10-2018, 05:00 | .torrent скачали: 0

    Tim Hecker - Konoyo (2018) Kranky [FLAC|Lossless|tracks+.cue] &ltAmbient, Drone, Experimental>Жанр: Ambient, Drone, Experimental
    Издание: Kranky - KRANK219
    Продолжительность: 00: 59: 09
    Кодек: FLAC
    Битрейт: Lossless
    Тип рипа: tracks+.cue

    Треклист

    01. This Life (08: 42)
    02. In Death Valley (05: 36)
    03. Is A Rose Petal Of The Dying Crimson Light (03: 27)
    04. Keyed Out (09: 46)
    05. In Mother Earth Phase (10: 26)
    06. A Sodium Codec Haze (05: 46)
    07. Across To Anoyo (15: 26)

    Exact Audio Copy V1.0 beta 6 from 9. April 2015
    EAC extraction logfile from 1. October 2018, 15: 16
    Tim Hecker/Konoyo
    Used drive : TSSTcorpCDDVDW SH-222AB Adapter: 1 ID: 0
    Read mode : Secure
    Utilize accurate stream : Yes
    Defeat audio cache : Yes
    Make use of C2 pointers : No
    Read offset correction : 6
    Overread into Lead-In and Lead-Out : No
    Fill up missing offset samples with silence : Yes
    Delete leading and trailing silent blocks : No
    Null samples used in CRC calculations : Yes
    Used interface : Native Win32 interface for Win NT 2000
    Gap handling : Appended to previous track
    Used output format : User Defined Encoder
    Selected bitrate : 1024 kBit/s
    Quality : High
    Add ID3 tag : No
    Command line compressor : C: Program Files (x86)Exact Audio CopyFlac lac.exe
    Additional command line options : -8 -e -p -V -T ARTIST=%artist% -T TITLE=%title% -T ALBUM=%albumtitle% -T DATE=%year% -T TRACKNUMBER=%tracknr% -T GENRE=%genre% -T PERFORMER=%albuminterpret% -T COMPOSER=%composer% %haslyrics%--tag-from-file=LYRICS=%lyricsfile%%haslyrics% -T ALBUMARTIST=%albumartist% -T DISCNUMBER=%cdnumber% -T TOTALDISCS=%totalcds% -T TOTALTRACKS=%numtracks% -T COMMENT=%comment% %source% -o %dest%
    TOC of the extracted CD
    Track | Start | Length | Start sector | End sector
    ---------------------------------------------------------
    1 | 0: 00.00 | 8: 42.07 | 0 | 39156
    2 | 8: 42.07 | 5: 36.13 | 39157 | 64369
    3 | 14: 18.20 | 3: 26.72 | 64370 | 79891
    4 | 17: 45.17 | 9: 45.72 | 79892 | 123838
    5 | 27: 31.14 | 10: 26.31 | 123839 | 170819
    6 | 37: 57.45 | 5: 46.15 | 170820 | 196784
    7 | 43: 43.60 | 15: 25.50 | 196785 | 266209
    Track 1
    Filename E: RedTim Hecker - Konoyo (2018) FLAC This Life.wav
    Pre-gap length 0: 00: 02.00
    Peak level 96.6 %
    Extraction speed 4.8 X
    Track quality 100.0 %
    Test CRC 1D2D2980
    Copy CRC 1D2D2980
    Track not present in AccurateRip database
    Copy OK
    Track 2
    Filename E: RedTim Hecker - Konoyo (2018) FLAC In Death Valley.wav
    Peak level 96.6 %
    Extraction speed 5.4 X
    Track quality 100.0 %
    Test CRC 4F639571
    Copy CRC 4F639571
    Track not present in AccurateRip database
    Copy OK
    Track 3
    Filename E: RedTim Hecker - Konoyo (2018) FLAC Is a Rose Petal of the Dying Crimson Light.wav
    Peak level 95.9 %
    Extraction speed 5.4 X
    Track quality 100.0 %
    Test CRC 722452EA
    Copy CRC 722452EA
    Track not present in AccurateRip database
    Copy OK
    Track 4
    Filename E: RedTim Hecker - Konoyo (2018) FLAC Keyed Out.wav
    Peak level 96.6 %
    Extraction speed 6.0 X
    Track quality 99.9 %
    Test CRC BFB78DCD
    Copy CRC BFB78DCD
    Track not present in AccurateRip database
    Copy OK
    Track 5
    Filename E: RedTim Hecker - Konoyo (2018) FLAC In Mother Earth Phase.wav
    Peak level 96.6 %
    Extraction speed 7.3 X
    Track quality 100.0 %
    Test CRC FA53CEAE
    Copy CRC FA53CEAE
    Track not present in AccurateRip database
    Copy OK
    Track 6
    Filename E: RedTim Hecker - Konoyo (2018) FLAC A Sodium Codec Haze.wav
    Peak level 96.6 %
    Extraction speed 7.5 X
    Track quality 100.0 %
    Test CRC CA23A7FE
    Copy CRC CA23A7FE
    Track not present in AccurateRip database
    Copy OK
    Track 7
    Filename E: RedTim Hecker - Konoyo (2018) FLAC Across to Anoyo.wav
    Peak level 96.6 %
    Extraction speed 8.7 X
    Track quality 100.0 %
    Test CRC A91AAEC4
    Copy CRC A91AAEC4
    Track not present in AccurateRip database
    Copy OK
    None of the tracks are present in the AccurateRip database
    No errors occurred
    End of status report
    ---- CUETools DB Plugin V2.1.6
    CTDB TOCID: N8CdUyMKZM7EGOuiihJcz0mipio- found
    Submit result: N8CdUyMKZM7EGOuiihJcz0mipio- has been confirmed
    Track | CTDB Status
    1 | (5/5) Accurately ripped
    2 | (5/5) Accurately ripped
    3 | (5/5) Accurately ripped
    4 | (5/5) Accurately ripped
    5 | (5/5) Accurately ripped
    6 | (5/5) Accurately ripped
    7 | (5/5) Accurately ripped
    ==== Log checksum 17479AAD8B9C57C42895A4027D984F142AC621BC38E6289BC5DA392447EBE1A9 ====

    REM GENRE Ambient
    REM DATE 2018
    REM DISCID 5B0DDD07
    REM COMMENT ExactAudioCopy v1.0b6
    PERFORMER Tim Hecker
    TITLE Konoyo
    FILE 01. This Life.wav WAVE
    TRACK 01 AUDIO
    TITLE This Life
    PERFORMER Tim Hecker
    ISRC USNCB1821901
    FLAGS DCP
    INDEX 01 00: 00: 00
    FILE 02. In Death Valley.wav WAVE
    TRACK 02 AUDIO
    TITLE In Death Valley
    PERFORMER Tim Hecker
    ISRC USNCB1821901
    FLAGS DCP
    INDEX 01 00: 00: 00
    FILE 03. Is a Rose Petal of the Dying Crimson Light.wav WAVE
    TRACK 03 AUDIO
    TITLE Is a Rose Petal of the Dying Crimson Light
    PERFORMER Tim Hecker
    ISRC USNCB1821902
    FLAGS DCP
    INDEX 01 00: 00: 00
    FILE 04. Keyed Out.wav WAVE
    TRACK 04 AUDIO
    TITLE Keyed Out
    PERFORMER Tim Hecker
    ISRC USNCB1821904
    FLAGS DCP
    INDEX 01 00: 00: 00
    FILE 05. In Mother Earth Phase.wav WAVE
    TRACK 05 AUDIO
    TITLE In Mother Earth Phase
    PERFORMER Tim Hecker
    ISRC USNCB1821905
    FLAGS DCP
    INDEX 01 00: 00: 00
    FILE 06. A Sodium Codec Haze.wav WAVE
    TRACK 06 AUDIO
    TITLE A Sodium Codec Haze
    PERFORMER Tim Hecker
    ISRC USNCB1821906
    FLAGS DCP
    INDEX 01 00: 00: 00
    FILE 07. Across to Anoyo.wav WAVE
    TRACK 07 AUDIO
    TITLE Across to Anoyo
    PERFORMER Tim Hecker
    ISRC USNCB1821907
    FLAGS DCP
    INDEX 01 00: 00: 00


    Tim Hecker - Konoyo (2018) Kranky [FLAC|Lossless|tracks+.cue] <Ambient, Drone, Experimental>
    Рейтинг →
     (голосов: 1, оценка 4/5, голосовать можно 1 раз )

    Другие торренты по теме:

  • Tim Hecker - Konoyo (2018) [FLAC|Lossless|WEB-DL|tracks] <Ambient, Drone>


    • Комментарии (0):

      Информация

      Информация

        Посетители, находящиеся в группе Гости, не могут оставлять комментарии в данной новости.

        ↓ Меню




        ↓ Опрос

        Вы добавили сайт в закладки?
        Да
        Нет


        Top 10 за месяц (Музыка)