.
Авторизация | Регистрация
Хочешь лучшие торренты? Добавь свой email!
Добавить

Торрент скачать бесплатно

  • support: webmaster@btracker.club
» » Claude Quartet - Bolling: Concerto for Classical Guitar and Jazz Piano Trio, Sonate pour Guitare (2016) Brilliant Classics [FLAC|Lossless|tracks + .cue] <Third Stream, Piano Jazz> торрент скачать бесплатно


    Claude Quartet - Bolling: Concerto for Classical Guitar and Jazz Piano Trio, Sonate pour Guitare (2016) Brilliant Classics [FLAC|Lossless|tracks + .cue] <Third Stream, Piano Jazz> торрент скачать бесплатно

    Опубликовал: fregat | Дата: 29-10-2018, 05:00 | .torrent скачали: 0

    Claude Quartet - Bolling: Concerto for Classical Guitar and Jazz Piano Trio, Sonate pour Guitare (2016) Brilliant Classics [FLAC|Lossless|tracks + .cue] &ltThird Stream, Piano Jazz>Жанр: Third Stream, Piano Jazz
    Издание: Brilliant Classics - 95227
    Продолжительность: 00: 54: 57
    Кодек: FLAC (tracks+.cue)
    Битрейт: Lossless
    Источник (релизер): Musicgate
    Страна-производитель диска: EU
    Наличие сканов в содержимом раздачи: да

    Треклист

    01. Hispanic Dance 5: 38
    02. Mexicaine 7: 13
    03. Invention 4: 14
    04. Serenade 5: 23
    05. Rhapsodic 6: 33
    06. Africaine 4: 11
    07. Finale 6: 00
    08. Jazzo Brasileiro 6: 01
    09. Baladina 5: 25
    10. Fogoso 4: 19

    Exact Audio Copy V1.3 from 2. September 2016
    EAC extraction logfile from 10. October 2018, 16: 38
    Claude Quartet/Bolling
    Used drive : HL-DT-STDVDRAM GH24NSB0 Adapter: 1 ID: 0
    Read mode : Secure
    Utilize accurate stream : Yes
    Defeat audio cache : Yes
    Make use of C2 pointers : No
    Read offset correction : 6
    Overread into Lead-In and Lead-Out : No
    Fill up missing offset samples with silence : Yes
    Delete leading and trailing silent blocks : No
    Null samples used in CRC calculations : Yes
    Used interface : Native Win32 interface for Win NT 2000
    Gap handling : Appended to previous track
    Used output format : User Defined Encoder
    Selected bitrate : 1024 kBit/s
    Quality : High
    Add ID3 tag : No
    Command line compressor : C: Program Files (x86)Exact Audio CopyFLACFLAC.EXE
    Additional command line options : -V -8 -T Genre=%genre% -T Artist=%artist% -T Title=%title% -T Album=%albumtitle% -T Date=%year% -T Tracknumber=%tracknr% -T Comment=%comment% %source%
    TOC of the extracted CD
    Track | Start | Length | Start sector | End sector
    ---------------------------------------------------------
    1 | 0: 00.00 | 5: 38.14 | 0 | 25363
    2 | 5: 38.14 | 7: 12.74 | 25364 | 57837
    3 | 12: 51.13 | 4: 13.70 | 57838 | 76882
    4 | 17: 05.08 | 5: 22.69 | 76883 | 101101
    5 | 22: 28.02 | 6: 33.31 | 101102 | 130607
    6 | 29: 01.33 | 4: 11.06 | 130608 | 149438
    7 | 33: 12.39 | 5: 59.45 | 149439 | 176408
    8 | 39: 12.09 | 6: 01.09 | 176409 | 203492
    9 | 45: 13.18 | 5: 24.56 | 203493 | 227848
    10 | 50: 37.74 | 4: 18.49 | 227849 | 247247
    Track 1
    Filename D: MusicMG ripsClaude Quartet - Bolling-Concerto for Classical Guitar and Jazz Piano Trio, Sonate pour Guitare - 2016 FLAC - Hispanic Dance.wav
    Pre-gap length 0: 00: 02.00
    Peak level 97.8 %
    Extraction speed 1.1 X
    Track quality 100.0 %
    Test CRC 08CA0C53
    Copy CRC 08CA0C53
    Cannot be verified as accurate (confidence 2) 207A4FDD, AccurateRip returned 822871AF (AR v2)
    Copy OK
    Track 2
    Filename D: MusicMG ripsClaude Quartet - Bolling-Concerto for Classical Guitar and Jazz Piano Trio, Sonate pour Guitare - 2016 FLAC - Mexicaine.wav
    Pre-gap length 0: 00: 00.09
    Peak level 96.3 %
    Extraction speed 1.3 X
    Track quality 100.0 %
    Test CRC D9C64A28
    Copy CRC D9C64A28
    Cannot be verified as accurate (confidence 2) EAE3BC95, AccurateRip returned 8030AE56 (AR v2)
    Copy OK
    Track 3
    Filename D: MusicMG ripsClaude Quartet - Bolling-Concerto for Classical Guitar and Jazz Piano Trio, Sonate pour Guitare - 2016 FLAC - Invention.wav
    Pre-gap length 0: 00: 00.10
    Peak level 97.4 %
    Extraction speed 1.2 X
    Track quality 99.9 %
    Test CRC D94183CD
    Copy CRC D94183CD
    Cannot be verified as accurate (confidence 2) 7620BC32, AccurateRip returned 1DF2B994 (AR v2)
    Copy OK
    Track 4
    Filename D: MusicMG ripsClaude Quartet - Bolling-Concerto for Classical Guitar and Jazz Piano Trio, Sonate pour Guitare - 2016 FLAC - Serenade.wav
    Pre-gap length 0: 00: 03.01
    Peak level 95.3 %
    Extraction speed 1.5 X
    Track quality 100.0 %
    Test CRC CB81B397
    Copy CRC CB81B397
    Cannot be verified as accurate (confidence 2) B7FFE03A, AccurateRip returned 43065D5A (AR v2)
    Copy OK
    Track 5
    Filename D: MusicMG ripsClaude Quartet - Bolling-Concerto for Classical Guitar and Jazz Piano Trio, Sonate pour Guitare - 2016 FLAC - Rhapsodic.wav
    Pre-gap length 0: 00: 02.74
    Peak level 96.6 %
    Extraction speed 1.6 X
    Track quality 99.9 %
    Test CRC 8A763EC9
    Copy CRC 8A763EC9
    Cannot be verified as accurate (confidence 2) 1715336C, AccurateRip returned 40430854 (AR v2)
    Copy OK
    Track 6
    Filename D: MusicMG ripsClaude Quartet - Bolling-Concerto for Classical Guitar and Jazz Piano Trio, Sonate pour Guitare - 2016 FLAC - Africaine.wav
    Pre-gap length 0: 00: 03.00
    Peak level 96.5 %
    Extraction speed 1.7 X
    Track quality 100.0 %
    Test CRC 00ECE62A
    Copy CRC 00ECE62A
    Cannot be verified as accurate (confidence 2) A0CBDAFC, AccurateRip returned 43F87395 (AR v2)
    Copy OK
    Track 7
    Filename D: MusicMG ripsClaude Quartet - Bolling-Concerto for Classical Guitar and Jazz Piano Trio, Sonate pour Guitare - 2016 FLAC - Finale.wav
    Pre-gap length 0: 00: 03.01
    Peak level 97.2 %
    Extraction speed 1.9 X
    Track quality 100.0 %
    Test CRC D60EE460
    Copy CRC D60EE460
    Cannot be verified as accurate (confidence 2) CD0A87D9, AccurateRip returned 3CE64DBD (AR v2)
    Copy OK
    Track 8
    Filename D: MusicMG ripsClaude Quartet - Bolling-Concerto for Classical Guitar and Jazz Piano Trio, Sonate pour Guitare - 2016 FLAC8 - Jazzo Brasileiro.wav
    Pre-gap length 0: 00: 03.44
    Peak level 95.2 %
    Extraction speed 2.0 X
    Track quality 100.0 %
    Test CRC AE7989C9
    Copy CRC AE7989C9
    Cannot be verified as accurate (confidence 2) 6EA75EB4, AccurateRip returned A051DFBE (AR v2)
    Copy OK
    Track 9
    Filename D: MusicMG ripsClaude Quartet - Bolling-Concerto for Classical Guitar and Jazz Piano Trio, Sonate pour Guitare - 2016 FLAC9 - Baladina.wav
    Pre-gap length 0: 00: 02.73
    Peak level 66.4 %
    Extraction speed 2.1 X
    Track quality 100.0 %
    Test CRC BE8676CA
    Copy CRC BE8676CA
    Cannot be verified as accurate (confidence 2) 5ADDA2E1, AccurateRip returned B88C3D14 (AR v2)
    Copy OK
    Track 10
    Filename D: MusicMG ripsClaude Quartet - Bolling-Concerto for Classical Guitar and Jazz Piano Trio, Sonate pour Guitare - 2016 FLAC - Fogoso.wav
    Pre-gap length 0: 00: 03.01
    Peak level 95.3 %
    Extraction speed 1.9 X
    Track quality 99.9 %
    Test CRC A0DAD594
    Copy CRC A0DAD594
    Cannot be verified as accurate (confidence 2) 9121AB44, AccurateRip returned C4E2864D (AR v2)
    Copy OK
    No tracks could be verified as accurate
    You may have a different pressing from the one(s) in the database
    No errors occurred
    End of status report
    ==== Log checksum 8C5D7D7415103F1560DDCBDEDC024B0BBA0401DFFC242D504DB6317024CE2503 ====

    REM GENRE Jazz
    REM DATE 2016
    REM DISCID 7F0CE00A
    REM COMMENT ExactAudioCopy v1.3
    PERFORMER Claude Quartet
    TITLE Bolling
    REM COMPOSER
    FILE 01 - Hispanic Dance.wav WAVE
    TRACK 01 AUDIO
    TITLE Hispanic Dance
    PERFORMER Claude Quartet
    REM COMPOSER
    ISRC NLY331507124
    INDEX 01 00: 00: 00
    TRACK 02 AUDIO
    TITLE Mexicaine
    PERFORMER Claude Quartet
    REM COMPOSER
    ISRC NLY331507125
    INDEX 00 05: 38: 05
    FILE 02 - Mexicaine.wav WAVE
    INDEX 01 00: 00: 00
    TRACK 03 AUDIO
    TITLE Invention
    PERFORMER Claude Quartet
    REM COMPOSER
    ISRC NLY331507126
    INDEX 00 07: 12: 64
    FILE 03 - Invention.wav WAVE
    INDEX 01 00: 00: 00
    TRACK 04 AUDIO
    TITLE Serenade
    PERFORMER Claude Quartet
    REM COMPOSER
    ISRC NLY331507127
    INDEX 00 04: 10: 69
    FILE 04 - Serenade.wav WAVE
    INDEX 01 00: 00: 00
    TRACK 05 AUDIO
    TITLE Rhapsodic
    PERFORMER Claude Quartet
    REM COMPOSER
    ISRC NLY331507128
    INDEX 00 05: 19: 70
    FILE 05 - Rhapsodic.wav WAVE
    INDEX 01 00: 00: 00
    TRACK 06 AUDIO
    TITLE Africaine
    PERFORMER Claude Quartet
    REM COMPOSER
    ISRC NLY331507129
    INDEX 00 06: 30: 31
    FILE 06 - Africaine.wav WAVE
    INDEX 01 00: 00: 00
    TRACK 07 AUDIO
    TITLE Finale
    PERFORMER Claude Quartet
    REM COMPOSER
    ISRC NLY331507130
    INDEX 00 04: 08: 05
    FILE 07 - Finale.wav WAVE
    INDEX 01 00: 00: 00
    TRACK 08 AUDIO
    TITLE Jazzo Brasileiro
    PERFORMER Claude Quartet
    REM COMPOSER
    ISRC NLY331507131
    INDEX 00 05: 56: 01
    FILE 08 - Jazzo Brasileiro.wav WAVE
    INDEX 01 00: 00: 00
    TRACK 09 AUDIO
    TITLE Baladina
    PERFORMER Claude Quartet
    REM COMPOSER
    ISRC NLY331507132
    INDEX 00 05: 58: 11
    FILE 09 - Baladina.wav WAVE
    INDEX 01 00: 00: 00
    TRACK 10 AUDIO
    TITLE Fogoso
    PERFORMER Claude Quartet
    REM COMPOSER
    ISRC NLY331507133
    INDEX 00 05: 21: 55
    FILE 10 - Fogoso.wav WAVE
    INDEX 01 00: 00: 00

    -----------------------
    DON'T MODIFY THIS FILE
    -----------------------
    PERFORMER: auCDtect Task Manager, ver. 1.6.0 RC1 build 1.6.0.1
    Copyright (c) 2008-2010 y-soft. All rights reserved
    http://y-soft.org
    ANALYZER: auCDtect: CD records authenticity detector, version 0.8.2
    Copyright (c) 2004 Oleg Berngardt. All rights reserved.
    Copyright (c) 2004 Alexander Djourik. All rights reserved.
    FILE: 10 - Fogoso.flac
    Size: 20316520 Hash: FAA92AC90D1F3C5A889DFA2BD3364CF3 Accuracy: -m0
    Conclusion: CDDA 99%
    Signature: FEE84F5A030519FBDB76E22BD6380AAC2F0E70FA
    FILE: 09 - Baladina.flac
    Size: 20243739 Hash: 5EB70E35E3E7B508FD0733852D1816DD Accuracy: -m0
    Conclusion: CDDA 100%
    Signature: 9D353E9E8BD0BD1813D2807EE30C01D167F4AC72
    FILE: 08 - Jazzo Brasileiro.flac
    Size: 25305846 Hash: 8FAF5945466699830342D1F3898D7BEB Accuracy: -m0
    Conclusion: CDDA 100%
    Signature: E4D5F22CC2701187D3D9B0EA6C74989A2FA0F11D
    FILE: 07 - Finale.flac
    Size: 33481263 Hash: B3D9848DAB5066693EDC3CE23D8205F9 Accuracy: -m0
    Conclusion: CDDA 100%
    Signature: B71D9A92CC938C04A8A5EBF44757AF1E05BCB222
    FILE: 06 - Africaine.flac
    Size: 23377116 Hash: 3D932FCB95DEDD9E8405F0D91300B22A Accuracy: -m0
    Conclusion: CDDA 100%
    Signature: 191D60A52E9D08DBA2309D1C87FFA7AFD7C07B71
    FILE: 05 - Rhapsodic.flac
    Size: 34379796 Hash: 4BAE7CF5EB27683C372B4B5D3C744F19 Accuracy: -m0
    Conclusion: CDDA 100%
    Signature: BA83DABA0C45ED55A92BB513C1C3DE5ED61B5F19
    FILE: 04 - Serenade.flac
    Size: 28148980 Hash: 66184ED5ADBAA594747C0D57B14B1745 Accuracy: -m0
    Conclusion: CDDA 100%
    Signature: E14A498143FF1662CAA89CC38B8940F85F8E3D85
    FILE: 03 - Invention.flac
    Size: 23348542 Hash: 6DE31C201C1CED90D38AFFD535AE2319 Accuracy: -m0
    Conclusion: CDDA 100%
    Signature: 97FFD5AEFD422AB21645376B0492C972EC73993A
    FILE: 02 - Mexicaine.flac
    Size: 34478446 Hash: F0957D8E654F942C3D6FD6D2A0AD681A Accuracy: -m0
    Conclusion: CDDA 100%
    Signature: F08F3268C9BD18E409C5F211CC727A82A76F661F
    FILE: 01 - Hispanic Dance.flac
    Size: 30376517 Hash: A5CE18CBC8FBBD4C7CF38C78EE2A6D2A Accuracy: -m0
    Conclusion: CDDA 100%
    Signature: 1D090C65CA4F662B431772F4A9332382D45B15E3


    Claude Quartet - Bolling: Concerto for Classical Guitar and Jazz Piano Trio, Sonate pour Guitare (2016) Brilliant Classics [FLAC|Lossless|tracks + .cue] <Third Stream, Piano Jazz>
    Рейтинг →
     (голосов: 1, оценка 5/5, голосовать можно 1 раз )

    Другие торренты по теме:

  • Buddy Tate & Claude Hopkins - Buddy & Claude (1960) 1999, Prestige[FLAC|Lossless|tracks + .cue] <Mainstream Jazz, Swing>
  • Enrico Pieranunzi - Monsieur Claude A Travel with Claude Debussy (2018) Bonsai Music [FLAC|Lossless|tracks + .cue] <Post-Bop, Piano Jazz>
  • Claude Bolling, Jean-Pierre Rampal & Alexandre Lagoya - Picnic Suite (1980) [APE|Lossless]<Classical, Jazz>
  • The Royal Guitar Ensemble & Claude Ciari - Golden Guitar (2004) [FLAC|Lossless]<Instrumental, Guitar> скачать через торрент бесплатно
  • Claude Debussy - Images & Preludes II (Marc-Andre Hamelin) (2014) [FLAC 2.0|96 / 24|Lossless|tracks] <Classical>
  • Camp Claude - Swimming Lessons (2016) [FLAC|Lossless|tracks] <Indie Pop, Electro-pop>
  • Claude Ciari - La Playa (Platinum Best)2CD (2013) [FLAC|Lossless|tracks + .cue] <Instrumental, Guitar>
  • Жан-Клод Ван Джонсон / Jean-Claude Van Johnson (2016) WEB-DLRip (сезон 1, серии 0 из ) NewStudio (обновляемая)


    • Комментарии (0):

      Информация

      Информация

        Посетители, находящиеся в группе Гости, не могут оставлять комментарии в данной новости.

        ↓ Меню




        ↓ Опрос

        Вы добавили сайт в закладки?
        Да
        Нет


        Top 10 за месяц (Музыка)