.
Авторизация | Регистрация
Хочешь лучшие торренты? Добавь свой email!
Добавить

Торрент скачать бесплатно

  • support: webmaster@btracker.club
» » DRØN (Dron, Signalform, Self Oscillate) - Discography 12 Releases (2000-2015) Elektrolux, Mikrolux [FLAC|Lossless|tracks+.cue, tracks] <IDM, Downtempo, Electro, Ambient> торрент скачать бесплатно


    DRØN (Dron, Signalform, Self Oscillate) - Discography 12 Releases (2000-2015) Elektrolux, Mikrolux [FLAC|Lossless|tracks+.cue, tracks] <IDM, Downtempo, Electro, Ambient> торрент скачать бесплатно

    Опубликовал: fregat | Дата: 17-07-2018, 05:00 | .torrent скачали: 0

    DRØN (Dron, Signalform, Self Oscillate) - Discography 12 Releases (2000-2015) Elektrolux, Mikrolux [FLAC|Lossless|tracks+.cue, tracks] &ltIDM, Downtempo, Electro, Ambient>Год выпуска : 2000
    Жанр : IDM/Downtempo/Ambient
    Продолжительность : 01: 11: 42
    Треклист :
    01. Trilian (05: 41)
    02. Rem (08: 04)
    03. Kito (04: 24)
    04. Gnat (07: 59)
    05. Reboard (07: 53)
    06. Wahtak (06: 51)
    07. Taerk (10: 12)
    08. Jabha (09: 22)
    09. Pheon (11: 16)

    Exact Audio Copy V1.0 beta 3 from 29. August 2011
    EAC extraction logfile from 29. March 2014, 12: 41
    Drøn/Parsec
    Used drive : TSSTcorpDVDWBD TS-LB23D Adapter: 0 ID: 0
    Read mode : Secure
    Utilize accurate stream : Yes
    Defeat audio cache : Yes
    Make use of C2 pointers : No
    Read offset correction : 6
    Overread into Lead-In and Lead-Out : No
    Fill up missing offset samples with silence : Yes
    Delete leading and trailing silent blocks : No
    Null samples used in CRC calculations : Yes
    Used interface : Installed external ASPI interface
    Gap handling : Appended to previous track
    Used output format : User Defined Encoder
    Selected bitrate : 1024 kBit/s
    Quality : High
    Add ID3 tag : No
    Command line compressor : C: Program Files (x86)Flac lac.exe
    Additional command line options : -8 -V -T ARTIST=%artist% -T TITLE=%title% -T ALBUM=%albumtitle% -T DATE=%year% -T TRACKNUMBER=%tracknr% -T GENRE=%genre% -T PERFORMER=%albuminterpret% -T COMPOSER=%composer% %haslyrics%--tag-from-file=LYRICS=%lyricsfile%%haslyrics% -T ALBUMARTIST=%albumartist% -T DISCNUMBER=%cdnumber% -T TOTALDISCS=%totalcds% -T TOTALTRACKS=%numtracks% -T COMMENT=%comment% %source% -o %dest%
    TOC of the extracted CD
    Track | Start | Length | Start sector | End sector
    ---------------------------------------------------------
    1 | 0: 00.00 | 5: 40.51 | 0 | 25550
    2 | 5: 40.51 | 8: 03.58 | 25551 | 61833
    3 | 13: 44.34 | 4: 24.08 | 61834 | 81641
    4 | 18: 08.42 | 7: 59.34 | 81642 | 117600
    5 | 26: 08.01 | 7: 53.06 | 117601 | 153081
    6 | 34: 01.07 | 6: 51.35 | 153082 | 183941
    7 | 40: 52.42 | 10: 12.37 | 183942 | 229878
    8 | 51: 05.04 | 9: 22.20 | 229879 | 272048
    9 | 60: 27.24 | 11: 16.01 | 272049 | 322749
    Track 1
    Filename E: MP3EACDrøn - Parsec (FLAC) Trilian.wav
    Pre-gap length 0: 00: 02.00
    Peak level 99.9 %
    Extraction speed 1.9 X
    Track quality 100.0 %
    Test CRC D2E747AC
    Copy CRC D2E747AC
    Accurately ripped (confidence 6) 7FB7276B (AR v2)
    Copy OK
    Track 2
    Filename E: MP3EACDrøn - Parsec (FLAC) Rem.wav
    Pre-gap length 0: 00: 02.00
    Peak level 70.7 %
    Extraction speed 1.5 X
    Track quality 100.0 %
    Test CRC 10997C62
    Copy CRC 10997C62
    Accurately ripped (confidence 6) 46565A6D (AR v2)
    Copy OK
    Track 3
    Filename E: MP3EACDrøn - Parsec (FLAC) Kito.wav
    Pre-gap length 0: 00: 02.00
    Peak level 100.0 %
    Extraction speed 2.4 X
    Track quality 100.0 %
    Test CRC D2D72BEC
    Copy CRC D2D72BEC
    Accurately ripped (confidence 6) 2EA06AA7 (AR v2)
    Copy OK
    Track 4
    Filename E: MP3EACDrøn - Parsec (FLAC) Gnat.wav
    Pre-gap length 0: 00: 02.00
    Peak level 99.9 %
    Extraction speed 1.9 X
    Track quality 100.0 %
    Test CRC 70AD6FD3
    Copy CRC 70AD6FD3
    Accurately ripped (confidence 6) AA15E247 (AR v2)
    Copy OK
    Track 5
    Filename E: MP3EACDrøn - Parsec (FLAC) Reboard.wav
    Pre-gap length 0: 00: 02.00
    Peak level 99.6 %
    Extraction speed 2.8 X
    Track quality 99.9 %
    Test CRC BA8C1540
    Copy CRC BA8C1540
    Accurately ripped (confidence 6) C1489C82 (AR v2)
    Copy OK
    Track 6
    Filename E: MP3EACDrøn - Parsec (FLAC) Wahtak.wav
    Pre-gap length 0: 00: 02.00
    Peak level 100.0 %
    Extraction speed 3.2 X
    Track quality 100.0 %
    Test CRC 09C353C7
    Copy CRC 09C353C7
    Accurately ripped (confidence 6) E30913CA (AR v2)
    Copy OK
    Track 7
    Filename E: MP3EACDrøn - Parsec (FLAC) Taerk.wav
    Pre-gap length 0: 00: 02.00
    Peak level 100.0 %
    Extraction speed 3.3 X
    Track quality 99.9 %
    Test CRC 68CEE1A7
    Copy CRC 68CEE1A7
    Accurately ripped (confidence 6) 64363E1D (AR v2)
    Copy OK
    Track 8
    Filename E: MP3EACDrøn - Parsec (FLAC)8 Jabha.wav
    Pre-gap length 0: 00: 02.00
    Peak level 100.0 %
    Extraction speed 2.6 X
    Track quality 100.0 %
    Test CRC 1EB46AD3
    Copy CRC 1EB46AD3
    Accurately ripped (confidence 6) 52051023 (AR v2)
    Copy OK
    Track 9
    Filename E: MP3EACDrøn - Parsec (FLAC)9 Pheon.wav
    Pre-gap length 0: 00: 02.00
    Peak level 99.6 %
    Extraction speed 2.5 X
    Track quality 100.0 %
    Test CRC 2EE37A48
    Copy CRC 2EE37A48
    Accurately ripped (confidence 6) D89123C9 (AR v2)
    Copy OK
    All tracks accurately ripped
    No errors occurred
    End of status report
    ---- CUETools DB Plugin V2.1.3
    CTDB TOCID: LuSggxFb_QbKxdp4wWCXQyM.Ugw- found, Submit result: LuSggxFb_QbKxdp4wWCXQyM.Ugw- has been confirmed
    11e8bf56 (4/5) Accurately ripped
    969643ee (1/5) No match
    ==== Log checksum 30D636E7F9C4CC8A5289B3AC360DB84B894740B1357A9CF296C9ED2F89F256EF ====

    REM GENRE Electronic
    REM DATE 2000
    REM DISCID 6E10CF09
    REM COMMENT ExactAudioCopy v1.0b3
    PERFORMER Drшn
    TITLE Parsec
    FILE 01 Trilian.wav WAVE
    TRACK 01 AUDIO
    TITLE Trilian
    PERFORMER Drшn
    INDEX 01 00: 00: 00
    TRACK 02 AUDIO
    TITLE Rem
    PERFORMER Drшn
    INDEX 00 05: 38: 51
    FILE 02 Rem.wav WAVE
    INDEX 01 00: 00: 00
    TRACK 03 AUDIO
    TITLE Kito
    PERFORMER Drшn
    INDEX 00 08: 01: 58
    FILE 03 Kito.wav WAVE
    INDEX 01 00: 00: 00
    TRACK 04 AUDIO
    TITLE Gnat
    PERFORMER Drшn
    INDEX 00 04: 22: 08
    FILE 04 Gnat.wav WAVE
    INDEX 01 00: 00: 00
    TRACK 05 AUDIO
    TITLE Reboard
    PERFORMER Drшn
    INDEX 00 07: 57: 34
    FILE 05 Reboard.wav WAVE
    INDEX 01 00: 00: 00
    TRACK 06 AUDIO
    TITLE Wahtak
    PERFORMER Drшn
    INDEX 00 07: 51: 06
    FILE 06 Wahtak.wav WAVE
    INDEX 01 00: 00: 00
    TRACK 07 AUDIO
    TITLE Taerk
    PERFORMER Drшn
    INDEX 00 06: 49: 35
    FILE 07 Taerk.wav WAVE
    INDEX 01 00: 00: 00
    TRACK 08 AUDIO
    TITLE Jabha
    PERFORMER Drшn
    INDEX 00 10: 10: 37
    FILE 08 Jabha.wav WAVE
    INDEX 01 00: 00: 00
    TRACK 09 AUDIO
    TITLE Pheon
    PERFORMER Drшn
    INDEX 00 09: 20: 20
    FILE 09 Pheon.wav WAVE
    INDEX 01 00: 00: 00
    Год выпуска : 2001
    Жанр : IDM/Electro/Ambient
    Продолжительность : 01: 09: 10
    Треклист :
    01. Spool (04: 14)
    02. Ski (04: 14)
    03. Silkey (03: 57)
    04. Enhale (06: 56)
    05. Geos (06: 00)
    06. Tubek (04: 49)
    07. Flor (05: 48)
    08. Caltron (07: 05)
    09. Toob (03: 22)
    10. 3 A.M. Drive (04: 57)
    11. Statik (05: 04)
    12. (=dne (05: 30)
    13. Plateau (07: 14)

    -----------------------
    DON'T MODIFY THIS FILE
    -----------------------
    PERFORMER: auCDtect Task Manager, ver. 1.6.0 RC1 build 1.6.0.1
    Copyright (c) 2008-2010 y-soft. All rights reserved
    http://y-soft.org
    ANALYZER: auCDtect: CD records authenticity detector, version 0.8.2
    Copyright (c) 2004 Oleg Berngardt. All rights reserved.
    Copyright (c) 2004 Alexander Djourik. All rights reserved.
    FILE: 13 Plateau.flac
    Size: 44223269 Hash: E098AF4ADEF35F88C5263638F4E6C495 Accuracy: -m0
    Conclusion: CDDA 100%
    Signature: 0C58FBB3481AC9350022F4185B5D656E9CA90115
    FILE: 12 (=dne.flac
    Size: 39179240 Hash: 671858093050C894266449E77EF65A13 Accuracy: -m0
    Conclusion: CDDA 100%
    Signature: 31B7FD05B16B5AA235F497562CD52462E769633D
    FILE: 11 Statik.flac
    Size: 32752173 Hash: 063D670F20E71B16B3FF73DE8F8CFE12 Accuracy: -m0
    Conclusion: CDDA 100%
    Signature: 1ECE80E5AC566E6FCCCC6ED618A4119541D22ADB
    FILE: 10 3 A.M. Drive.flac
    Size: 24297533 Hash: 9513120625419737CFCD5D9814448C6A Accuracy: -m0
    Conclusion: CDDA 100%
    Signature: 55CBEACBD346C3CC330070C34423D8E9B19B85D2
    FILE: 09 Toob.flac
    Size: 16841452 Hash: 0371826F53B4EC32221B142B26EF0931 Accuracy: -m0
    Conclusion: CDDA 100%
    Signature: 57AF30F61D1FA91E3C983CCD96781432BB0A6ABB
    FILE: 08 Caltron.flac
    Size: 37503688 Hash: 2B929E535E0FF8126719C748ECD692A0 Accuracy: -m0
    Conclusion: CDDA 100%
    Signature: 43E5E5278C7E8AC980A2E3BB022B4EB190761FA5
    FILE: 07 Flor.flac
    Size: 33504755 Hash: 3EBB6729278F48CF715F2B453C7EB968 Accuracy: -m0
    Conclusion: CDDA 100%
    Signature: 84A12FA5A49C2D06BE0FBD5B17FAA9789809909C
    FILE: 06 Tubek.flac
    Size: 25872778 Hash: 83078680EBB636D949079C47C05B4C1C Accuracy: -m0
    Conclusion: CDDA 100%
    Signature: E0B751CF6E764517EAC33F0F938E4B0EB486F6F0
    FILE: 05 Geos.flac
    Size: 41989820 Hash: 5C982013E449B280650B3119F3FE8B79 Accuracy: -m0
    Conclusion: CDDA 100%
    Signature: B3142B3188AE8F85B2ECDE43E92E67B46C733B4C
    FILE: 04 Enhale.flac
    Size: 39748061 Hash: 91DA96DA343BB9C229908383BCEF0E91 Accuracy: -m0
    Conclusion: CDDA 99%
    Signature: 27F828E0AEBB3C3662249419C64AB9EAF87817C2
    FILE: 03 Silkey.flac
    Size: 23213848 Hash: 1D4E6AF858764FDE7972CBFCF308CFA0 Accuracy: -m0
    Conclusion: CDDA 100%
    Signature: 50ED978AC367F87E0B9D90B9336238F2FD57E54E
    FILE: 02 Ski.flac
    Size: 25439997 Hash: C66F037AB85636C07C01FD8CDBFBE986 Accuracy: -m0
    Conclusion: CDDA 100%
    Signature: 95DFEDA4503ED61EFBE7D9AFB1410260685BD62F
    FILE: 01 Spool.flac
    Size: 23440606 Hash: 18DAEC8ED738C8C1977839B0626FAD82 Accuracy: -m0
    Conclusion: CDDA 100%
    Signature: C481A30ECCEEE88E695010F0F6EC59AF526EB947
    Год выпуска : 2002
    Жанр : Electro/IDM/Ambient
    Продолжительность : 00: 24: 54
    Треклист :
    01. Eve Shores (06: 22)
    02. Planear (06: 05)
    03. Plateau (uNN Remix) (05: 46)
    04. Atom 312 (06: 41)

    -----------------------
    DON'T MODIFY THIS FILE
    -----------------------
    PERFORMER: auCDtect Task Manager, ver. 1.6.0 RC1 build 1.6.0.1
    Copyright (c) 2008-2010 y-soft. All rights reserved
    http://y-soft.org
    ANALYZER: auCDtect: CD records authenticity detector, version 0.8.2
    Copyright (c) 2004 Oleg Berngardt. All rights reserved.
    Copyright (c) 2004 Alexander Djourik. All rights reserved.
    FILE: 04. Atom 312.flac
    Size: 46799039 Hash: A5F9C8CEA0C25BFBAD8CFA98E37B71A5 Accuracy: -m0
    Conclusion: CDDA 100%
    Signature: 3AE6F6CC5BF61BF847F2066C124228EE587E54F8
    FILE: 03. Plateau (üNN Remix).flac
    Size: 41558090 Hash: 0A56DD2519694A34492654344B59D8F3 Accuracy: -m0
    Conclusion: CDDA 100%
    Signature: 1BA60CC9BBB16B63B33EDB764FEAF3D64C37928B
    FILE: 02. Planear.flac
    Size: 37857165 Hash: 24E9E419035D3C6BC0C3F9676A4BCC08 Accuracy: -m0
    Conclusion: CDDA 100%
    Signature: C49EB2A974E0968B2E72C03D0FE3E050BFD81A9F
    FILE: 01. Eve Shores.flac
    Size: 40597117 Hash: F88C2F1130782B70AD56D2AD68D9ACCA Accuracy: -m0
    Conclusion: CDDA 100%
    Signature: B79AF0E9BA52EEDA4EFB752309C1F3A59E39AC89
    Год выпуска : 2002
    Жанр : IDM/Ambient
    Продолжительность : 01: 05: 01
    Треклист :
    01. Base 54 (05: 36)
    02. Hamaya Beach (05: 18)
    03. Halo (06: 05)
    04. Aerosol (05: 10)
    05. Nano (05: 26)
    06. Impulse (06: 29)
    07. Recon Sat (05: 39)
    08. Bleen (04: 00)
    09. Lag (07: 15)
    10. Lander (06: 42)
    11. Probe (07: 21)

    Exact Audio Copy V1.0 beta 3 from 29. August 2011
    EAC extraction logfile from 12. October 2012, 10: 15
    Drøn/Homeworld
    Used drive : TSSTcorpCDDVDW TS-L633L Adapter: 2 ID: 0
    Read mode : Secure
    Utilize accurate stream : Yes
    Defeat audio cache : Yes
    Make use of C2 pointers : No
    Read offset correction : 6
    Overread into Lead-In and Lead-Out : No
    Fill up missing offset samples with silence : Yes
    Delete leading and trailing silent blocks : No
    Null samples used in CRC calculations : Yes
    Used interface : Native Win32 interface for Win NT 2000
    Gap handling : Appended to previous track
    Used output format : User Defined Encoder
    Selected bitrate : 1024 kBit/s
    Quality : High
    Add ID3 tag : No
    Command line compressor : C: Program Files (x86)Flac lac.exe
    Additional command line options : -8 -V -T ARTIST=%artist% -T TITLE=%title% -T ALBUM=%albumtitle% -T DATE=%year% -T TRACKNUMBER=%tracknr% -T GENRE=%genre% -T PERFORMER=%albuminterpret% -T COMPOSER=%composer% %haslyrics%--tag-from-file=LYRICS=%lyricsfile%%haslyrics% -T ALBUMARTIST=%albumartist% -T DISCNUMBER=%cdnumber% -T TOTALDISCS=%totalcds% -T TOTALTRACKS=%numtracks% -T COMMENT=%comment% %source% -o %dest%
    TOC of the extracted CD
    Track | Start | Length | Start sector | End sector
    ---------------------------------------------------------
    1 | 0: 00.00 | 5: 35.43 | 0 | 25167
    2 | 5: 35.43 | 5: 18.29 | 25168 | 49046
    3 | 10: 53.72 | 6: 04.45 | 49047 | 76391
    4 | 16: 58.42 | 5: 10.37 | 76392 | 99678
    5 | 22: 09.04 | 5: 25.57 | 99679 | 124110
    6 | 27: 34.61 | 6: 29.29 | 124111 | 153314
    7 | 34: 04.15 | 5: 39.05 | 153315 | 178744
    8 | 39: 43.20 | 4: 00.30 | 178745 | 196774
    9 | 43: 43.50 | 7: 15.13 | 196775 | 229412
    10 | 50: 58.63 | 6: 42.05 | 229413 | 259567
    11 | 57: 40.68 | 7: 20.67 | 259568 | 292634
    Track 1
    Filename E: MP3EACDrøn - Homeworld (FLAC) - Base 54.wav
    Pre-gap length 0: 00: 02.00
    Peak level 100.0 %
    Extraction speed 2.4 X
    Track quality 100.0 %
    Test CRC 59F70341
    Copy CRC 59F70341
    Track not present in AccurateRip database
    Copy OK
    Track 2
    Filename E: MP3EACDrøn - Homeworld (FLAC) - Hamaya Beach.wav
    Pre-gap length 0: 00: 02.00
    Peak level 100.0 %
    Extraction speed 2.3 X
    Track quality 99.9 %
    Test CRC 0D98CFEB
    Copy CRC 0D98CFEB
    Track not present in AccurateRip database
    Copy OK
    Track 3
    Filename E: MP3EACDrøn - Homeworld (FLAC) - Halo.wav
    Pre-gap length 0: 00: 02.00
    Peak level 100.0 %
    Extraction speed 3.0 X
    Track quality 100.0 %
    Test CRC 55A9318F
    Copy CRC 55A9318F
    Track not present in AccurateRip database
    Copy OK
    Track 4
    Filename E: MP3EACDrøn - Homeworld (FLAC) - Aerosol.wav
    Pre-gap length 0: 00: 02.00
    Peak level 100.0 %
    Extraction speed 3.1 X
    Track quality 100.0 %
    Test CRC 737D2D55
    Copy CRC 737D2D55
    Track not present in AccurateRip database
    Copy OK
    Track 5
    Filename E: MP3EACDrøn - Homeworld (FLAC) - Nano.wav
    Pre-gap length 0: 00: 02.00
    Peak level 100.0 %
    Extraction speed 3.3 X
    Track quality 100.0 %
    Test CRC 50741A0B
    Copy CRC 50741A0B
    Track not present in AccurateRip database
    Copy OK
    Track 6
    Filename E: MP3EACDrøn - Homeworld (FLAC) - Impulse.wav
    Pre-gap length 0: 00: 02.00
    Peak level 100.0 %
    Extraction speed 3.6 X
    Track quality 100.0 %
    Test CRC E7157696
    Copy CRC E7157696
    Track not present in AccurateRip database
    Copy OK
    Track 7
    Filename E: MP3EACDrøn - Homeworld (FLAC) - Recon Sat.wav
    Pre-gap length 0: 00: 02.00
    Peak level 100.0 %
    Extraction speed 3.7 X
    Track quality 100.0 %
    Test CRC 74FCDA6A
    Copy CRC 74FCDA6A
    Track not present in AccurateRip database
    Copy OK
    Track 8
    Filename E: MP3EACDrøn - Homeworld (FLAC)8 - Bleen.wav
    Pre-gap length 0: 00: 02.00
    Peak level 100.0 %
    Extraction speed 3.7 X
    Track quality 100.0 %
    Test CRC 2E7278CC
    Copy CRC 2E7278CC
    Track not present in AccurateRip database
    Copy OK
    Track 9
    Filename E: MP3EACDrøn - Homeworld (FLAC)9 - Lag.wav
    Pre-gap length 0: 00: 02.00
    Peak level 100.0 %
    Extraction speed 4.2 X
    Track quality 100.0 %
    Test CRC 9579F53A
    Copy CRC 9579F53A
    Track not present in AccurateRip database
    Copy OK
    Track 10
    Filename E: MP3EACDrøn - Homeworld (FLAC) - Lander.wav
    Pre-gap length 0: 00: 02.00
    Peak level 100.0 %
    Extraction speed 3.8 X
    Track quality 99.9 %
    Test CRC 17D4F7FF
    Copy CRC 17D4F7FF
    Track not present in AccurateRip database
    Copy OK
    Track 11
    Filename E: MP3EACDrøn - Homeworld (FLAC) - Probe.wav
    Pre-gap length 0: 00: 02.00
    Peak level 100.0 %
    Extraction speed 4.1 X
    Track quality 99.9 %
    Test CRC 160DC699
    Copy CRC 160DC699
    Track not present in AccurateRip database
    Copy OK
    None of the tracks are present in the AccurateRip database
    No errors occurred
    End of status report
    ---- CUETools DB Plugin V2.1.3
    CTDB TOCID: nyFbVsUJPvkVBdzCl_F1j7NjJTk- found, Submit result: nyFbVsUJPvkVBdzCl_F1j7NjJTk- has been confirmed
    217304a3 (1/1) Accurately ripped
    ==== Log checksum 96B404D4F8470DE42AF987ADEFBD3EE29D667F73FEA0DD683B37B4DB10DD3303 ====

    REM GENRE Electronic
    REM DATE 2002
    REM DISCID 810F3D0B
    REM COMMENT ExactAudioCopy v1.0b3
    PERFORMER Drшn
    TITLE Homeworld
    FILE 01 - Base 54.wav WAVE
    TRACK 01 AUDIO
    TITLE Base 54
    PERFORMER Drшn
    INDEX 01 00: 00: 00
    TRACK 02 AUDIO
    TITLE Hamaya Beach
    PERFORMER Drшn
    INDEX 00 05: 33: 43
    FILE 02 - Hamaya Beach.wav WAVE
    INDEX 01 00: 00: 00
    TRACK 03 AUDIO
    TITLE Halo
    PERFORMER Drшn
    INDEX 00 05: 16: 29
    FILE 03 - Halo.wav WAVE
    INDEX 01 00: 00: 00
    TRACK 04 AUDIO
    TITLE Aerosol
    PERFORMER Drшn
    INDEX 00 06: 02: 45
    FILE 04 - Aerosol.wav WAVE
    INDEX 01 00: 00: 00
    TRACK 05 AUDIO
    TITLE Nano
    PERFORMER Drшn
    INDEX 00 05: 08: 37
    FILE 05 - Nano.wav WAVE
    INDEX 01 00: 00: 00
    TRACK 06 AUDIO
    TITLE Impulse
    PERFORMER Drшn
    INDEX 00 05: 23: 57
    FILE 06 - Impulse.wav WAVE
    INDEX 01 00: 00: 00
    TRACK 07 AUDIO
    TITLE Recon Sat
    PERFORMER Drшn
    INDEX 00 06: 27: 29
    FILE 07 - Recon Sat.wav WAVE
    INDEX 01 00: 00: 00
    TRACK 08 AUDIO
    TITLE Bleen
    PERFORMER Drшn
    INDEX 00 05: 37: 05
    FILE 08 - Bleen.wav WAVE
    INDEX 01 00: 00: 00
    TRACK 09 AUDIO
    TITLE Lag
    PERFORMER Drшn
    INDEX 00 03: 58: 30
    FILE 09 - Lag.wav WAVE
    INDEX 01 00: 00: 00
    TRACK 10 AUDIO
    TITLE Lander
    PERFORMER Drшn
    INDEX 00 07: 13: 13
    FILE 10 - Lander.wav WAVE
    INDEX 01 00: 00: 00
    TRACK 11 AUDIO
    TITLE Probe
    PERFORMER Drшn
    INDEX 00 06: 40: 05
    FILE 11 - Probe.wav WAVE
    INDEX 01 00: 00: 00
    Год выпуска : 2013
    Жанр : Ambient
    Продолжительность : 01: 00: 56
    Треклист :
    01. Three Suns (07: 10)
    02. Memories Of Earth (06: 34)
    03. Frozen Passage (10: 14)
    04. Metamorphosis (03: 25)
    05. Surface Probe (09: 00)
    06. Comet X/1997 N3 (06: 09)
    07. Gamma Ray Impact (06: 40)
    08. Star Bathing (04: 33)
    09. Dreamstate Interface (07: 11)

    -----------------------
    DON'T MODIFY THIS FILE
    -----------------------
    PERFORMER: auCDtect Task Manager, ver. 1.6.0 RC1 build 1.6.0.1
    Copyright (c) 2008-2010 y-soft. All rights reserved
    http://y-soft.org
    ANALYZER: auCDtect: CD records authenticity detector, version 0.8.2
    Copyright (c) 2004 Oleg Berngardt. All rights reserved.
    Copyright (c) 2004 Alexander Djourik. All rights reserved.
    FILE: 09. Dreamstate Interface.flac
    Size: 26574549 Hash: 94AE3232564285F5815C919CFEEA5897 Accuracy: -m0
    Conclusion: CDDA 54%
    Signature: 46052A0C151D0BEC11B6652028F26B22A3DC16BC
    FILE: 08. Star Bathing.flac
    Size: 23468109 Hash: EE9245173433918949816121B44DD81C Accuracy: -m0
    Conclusion: CDDA 99%
    Signature: 616F89C521E0362C0FA4B44E19833FF3C43D07FA
    FILE: 07. Gamma Ray Impact.flac
    Size: 36862857 Hash: FD9E18A047D1F5B41222C2887A401BB6 Accuracy: -m0
    Conclusion: MPEG 100%
    Signature: 5B29ECDA915B470EB452D3903F76A229424020E0
    FILE: 06. Comet X, 1997 N3.flac
    Size: 34287770 Hash: 3B1434C79736C853E9037AAF3DC98B8B Accuracy: -m0
    Conclusion: CDDA 100%
    Signature: 2ED7C7A2992472AFC6A3CAD003A550EB3E9448E8
    FILE: 05. Surface Probe.flac
    Size: 53023543 Hash: F97DFECF70B393DE2B3D6C3B7F551901 Accuracy: -m0
    Conclusion: CDDA 99%
    Signature: 3CC3B26FC1C66255A69698990AB0F96B49F477ED
    FILE: 04. Metamorphosis.flac
    Size: 17419699 Hash: 88EC452AF9C3601895D17372534D5648 Accuracy: -m0
    Conclusion: CDDA 100%
    Signature: D152D5F856BA8DB0FAC331F792B242A9EC7FEF1F
    FILE: 03. Frozen Passage.flac
    Size: 43614834 Hash: E819AD3E084836BFF47C893369B43FBB Accuracy: -m0
    Conclusion: CDDA 100%
    Signature: 636560AE1F123B9E1D3DBAF052FF022A3C527E8B
    FILE: 02. Memories Of Earth.flac
    Size: 32762206 Hash: 8D01656D53F5406174331160AE484D68 Accuracy: -m0
    Conclusion: CDDA 100%
    Signature: C884C453CD56BF84588794C93962CCDD95138F05
    FILE: 01. Three Suns.flac
    Size: 35591566 Hash: 1475A60319226325F8A29ADF402AAEFA Accuracy: -m0
    Conclusion: CDDA 100%
    Signature: F2FA3783C69B7E06E3E2247A3AAD1113801E65A1
    Год выпуска : 2015
    Жанр : IDM
    Продолжительность : 01: 10: 15
    Треклист :
    01. Crosslink (04: 28)
    02. Flang (04: 19)
    03. Alph (04: 05)
    04. Modula (04: 21)
    05. Robotik (03: 05)
    06. Rolling Hills (09: 07)
    07. Sdace Cerew (03: 44)
    08. Scramble (05: 38)
    09. Sternengleiter (06: 29)
    10. Deep Storage (04: 44)
    11. Terminal (04: 39)
    12. Intercom Meeting (04: 02)
    13. Radiant Haze (05: 03)
    14. Observer (06: 31)

    -----------------------
    DON'T MODIFY THIS FILE
    -----------------------
    PERFORMER: auCDtect Task Manager, ver. 1.5.1RC6 build 1.5.1.7
    Copyright (c) 2008-2010 y-soft. All rights reserved
    http://y-soft.org
    ANALYZER: auCDtect: CD records authenticity detector, version 0.8.2
    Copyright (c) 2004 Oleg Berngardt. All rights reserved.
    Copyright (c) 2004 Alexander Djourik. All rights reserved.
    FILE: 14 Observer.flac
    Size: 40931767 Hash: B0B3192D044C74369A71CD64A121A442 Accuracy: -m0
    Conclusion: CDDA 100%
    Signature: 3A9F750F041C07A667E6D21BEAD0A9A4AA6062A4
    FILE: 13 Radiant Haze.flac
    Size: 36048703 Hash: 9E7BE1DECE0AC5A7828E1E248370BD44 Accuracy: -m0
    Conclusion: CDDA 99%
    Signature: 750A09F7C7A7DAA5034356F54FD3011D2766C734
    FILE: 12 Intercom Meeting.flac
    Size: 27900328 Hash: 5698CA805F0DD82AF883775E714ACC68 Accuracy: -m0
    Conclusion: CDDA 100%
    Signature: 44078D1919D42980288C70C4BE3F6B92AB392B47
    FILE: 11 Terminal.flac
    Size: 32385799 Hash: 6D2289B6D3585C0ADD9794CB04688289 Accuracy: -m0
    Conclusion: CDDA 100%
    Signature: 011F4CFCB0F02CA209DF0E84CA513978ECE31188
    FILE: 10 Deep Storage.flac
    Size: 28508677 Hash: 515A9D3D93D8643497276AA7183944BC Accuracy: -m0
    Conclusion: CDDA 100%
    Signature: 10AF8B4AD0B4DE9AACB826D7789354FE8E64BD25
    FILE: 09 Sternengleiter.flac
    Size: 47287269 Hash: 2E39098D5FE1DCBE24EF0A74013C9DD4 Accuracy: -m0
    Conclusion: CDDA 100%
    Signature: 517AAAB8FA8CA85653889480B775BA77125FAFF8
    FILE: 08 Scramble.flac
    Size: 36252513 Hash: 102C9C89F195E382FAD698C9DF90D03D Accuracy: -m0
    Conclusion: CDDA 100%
    Signature: 7519C39414FD75577B5FDD51E9A228C9CF03EC13
    FILE: 07 Sdace Cerew.flac
    Size: 24378468 Hash: 570799FB3662942F7A552AFCD05D82ED Accuracy: -m0
    Conclusion: CDDA 100%
    Signature: BC9CE6DE36E835BA348ACA36671D689D4A63CBB8
    FILE: 06 Rolling Hills.flac
    Size: 59639375 Hash: 3FCF43B4C8F2DED37FF084F8A2A7EDD5 Accuracy: -m0
    Conclusion: CDDA 100%
    Signature: 63D46545B42F1DD2062D0432DC6AAF35F2695F87
    FILE: 05 Robotik.flac
    Size: 19586539 Hash: E8A827C157852A1718954C7EE262F3BE Accuracy: -m0
    Conclusion: CDDA 100%
    Signature: 3C828B1528ACADFE824744CC2BFB92DCAC2A29D3
    FILE: 04 Modula.flac
    Size: 25375621 Hash: 9E1186150D27F41F6E8199041578F609 Accuracy: -m0
    Conclusion: CDDA 100%
    Signature: DD7D28199144BD0829E181996731153C5A3DBBC4
    FILE: 03 Alph.flac
    Size: 25112156 Hash: 64D4883D7FF9CF293EB2E0D5553119C6 Accuracy: -m0
    Conclusion: CDDA 87%
    Signature: 19E6BEF20DFD05581ACD43DE1715F7542894F6B5
    FILE: 02 Flang.flac
    Size: 25994565 Hash: 0E692DEDB003F70E24E2130676BB9D07 Accuracy: -m0
    Conclusion: CDDA 100%
    Signature: 187B802F3B5DA9973644A4AEFD9A7AF6FF775CD9
    FILE: 01 Crosslink.flac
    Size: 27275364 Hash: 10F77CD562EF87B83CC7100405AB3B65 Accuracy: -m0
    Conclusion: CDDA 99%
    Signature: 5C4FEC16B0D56A82438A15AD974BB9238839101F
    Год выпуска : 2015
    Жанр : IDM
    Продолжительность : 00: 27: 25
    Треклист :
    01. Dish (06: 36)
    02. Elyse (06: 09)
    03. Paradroid (06: 06)
    04. Whan (08: 34)

    -----------------------
    DON'T MODIFY THIS FILE
    -----------------------
    PERFORMER: auCDtect Task Manager, ver. 1.6.0 RC1 build 1.6.0.1
    Copyright (c) 2008-2010 y-soft. All rights reserved
    http://y-soft.org
    ANALYZER: auCDtect: CD records authenticity detector, version 0.8.2
    Copyright (c) 2004 Oleg Berngardt. All rights reserved.
    Copyright (c) 2004 Alexander Djourik. All rights reserved.
    FILE: 04. Whan.flac
    Size: 43271407 Hash: 3456571652795B5125FD3DCBC5FDFF91 Accuracy: -m0
    Conclusion: MPEG 95%
    Signature: 205EF6AB71CC2EAB502741F393B4F3ED8B294A36
    FILE: 03. Paradroid.flac
    Size: 37432752 Hash: 00FB799EF35E5850BDD3C43351FEE9C0 Accuracy: -m0
    Conclusion: CDDA 100%
    Signature: 830F68622C19A0CFB18402884366870BD3698040
    FILE: 02. Elyse.flac
    Size: 38185997 Hash: 89FA1D858EA4F21E758A9A32D1DB697E Accuracy: -m0
    Conclusion: CDDA 100%
    Signature: 771240240DF9E68829433596BA13D537CC90CD30
    FILE: 01. Dish.flac
    Size: 38637311 Hash: 31FA62198E1CF120DAE1A871C83AF618 Accuracy: -m0
    Conclusion: CDDA 100%
    Signature: EA5DAEB1ED4F1BF3EC88646CBA19D8D9BD3409C8


    DRØN (Dron, Signalform, Self Oscillate) - Discography 12 Releases (2000-2015) Elektrolux, Mikrolux [FLAC|Lossless|tracks+.cue, tracks] <IDM, Downtempo, Electro, Ambient>
    Рейтинг →
     (голосов: 1, оценка 4/5, голосовать можно 1 раз )

    Другие торренты по теме:

  • Ummy Video Downloader 1.5.0.5 portable by DRON [Ru / En] скачать через торрент бесплатно
  • Ummy Video Downloader 1.5.0.6 portable by DRON [Ru / En] скачать через торрент бесплатно
  • Ummy Video Converter 1.0.0.1 portable by DRON [Ru / En] скачать через торрент бесплатно
  • Ummy Video Downloader 1.6.0.2 portable by DRON [Ru / En]
  • Ummy Video Downloader 1.6.0.4 portable by DRON [Ru / En]
  • Ummy Video Downloader 1.7.0.0 portable by DRON[Ru / En]
  • Ummy Video Downloader 1.7.0.2 portable by DRON [Ru / En]
  • Ummy Video Downloader 1.7.1.0 portable by DRON [Ru / En]


    • Комментарии (0):

      Информация

      Информация

        Посетители, находящиеся в группе Гости, не могут оставлять комментарии в данной новости.

        ↓ Меню




        ↓ Опрос

        Вы добавили сайт в закладки?
        Да
        Нет


        Top 10 за месяц (Музыка)

        VA - Essential Jazz Instrumental Jazz Music, Ultimate Guitar, Piano Bar, Jazz Sax (2016) [MP3|320 Kbps] <Jazz>

        (скачиваний: 13)
        Teddybears (Teddybears STHLM) - Collection (2000 - 2016) [MP3|320 Kbps] <Alternative Dance, Electronic Space Rock, Space Synthpop>

        (скачиваний: 11)
        Allen Watts - Flashback (2016) Single [MP3|320 кб / с] <Trance>

        (скачиваний: 8)
        Carmen McRae - By Special Request 1955 , (1989 Japan Edition) , [FLAC|Lossless|image + .cue] <Vocal Jazz>

        (скачиваний: 8)
        АлисА - Черная метка (1994) Remastered / 2014, Мистерия Звука / [MP3|320 кб / с]<Rock> скачать через торрент бесплатно

        (скачиваний: 7)
        ParanoiD - Отторжение (2007) [MP3|192 кб / с]<Nu Metal ,Thrash Metal> скачать через торрент бесплатно

        (скачиваний: 6)
        Allan Holdsworth - Дискография (21 альбом / 23 CD) (1976-2009) [WavPack|Lossless|image + .cue] <Fusion, Free Jazz, Contemporary Jazz>

        (скачиваний: 6)
        Fogh Depot - Turmalinturm (2016) [FLAC|Lossless|Web-DL|tracks] <Dark Jazz, Doom Jazz, Experimental Electronic>

        (скачиваний: 6)
        Сплин - 25 кадр (2001) / Navigator Records, 2015 / [MP3|320 кб / с]<Rock> скачать через торрент бесплатно

        (скачиваний: 5)
        Architect - Discography 15 Releases (1998-2015) Hymen Records [FLAC|Lossless|tracks+.cue, tracks] <IDM, Drum n Bass, Experimental, Industrial, Downtempo, Ambient>

        (скачиваний: 5)