.
Авторизация | Регистрация
Хочешь лучшие торренты? Добавь свой email!
Добавить

Торрент скачать бесплатно

  • support: webmaster@btracker.club
» » George Otsuka Trio - Page 1 (1967) 2014, Nippon Columbia [FLAC|Lossless|tracks + .cue] <Post-Bop> торрент скачать бесплатно


    George Otsuka Trio - Page 1 (1967) 2014, Nippon Columbia [FLAC|Lossless|tracks + .cue] <Post-Bop> торрент скачать бесплатно

    Опубликовал: fregat | Дата: 5-10-2017, 05:00 | .torrent скачали: 9

    George Otsuka Trio - Page 1 (1967) 2014, Nippon Columbia [FLAC|Lossless|tracks + .cue] &ltPost-Bop>Жанр: Post-Bop
    Издание: Nippon Columbia - COCB-54087
    Продолжительность: 00: 56: 26
    Кодек: FLAC (tracks+.cue)
    Битрейт: Lossless
    Источник (релизер): danoldlib
    Страна-производитель диска: Japan
    Наличие сканов в содержимом раздачи: нет

    Треклист

    01. Page 1 09: 38
    02. Bye Bye Blackbird 09: 07
    03. Theme 01: 37
    04. Blues for Alice 05: 49
    05. It Might as Well Be Spring 06: 12
    06. Potato Chips 07: 11
    07. Theme 01: 29
    08. Page 1 (Live from \'All Japan Jazz Festival \'68\') 15: 28

    X Lossless Decoder version 20170729 (150.3)
    XLD extraction logfile from 2017-10-02 18: 25: 59 -0400
    ジョージ大塚 TRIO/PAGE 1+1 (14 Remaster)
    Used drive : MATSHITA DVD-R UJ-85J (revision FCQ5)
    Media type : Pressed CD
    Ripper mode : XLD Secure Ripper
    Disable audio cache : OK for the drive with a cache less than 1375KiB
    Make use of C2 pointers : NO
    Read offset correction : 102
    Max retry count : 20
    Gap status : Analyzed, Appended (except HTOA)
    TOC of the extracted CD
    Track | Start | Length | Start sector | End sector
    ---------------------------------------------------------
    1 | 00: 00: 00 | 09: 37: 06 | 0 | 43280
    2 | 09: 37: 06 | 09: 06: 43 | 43281 | 84273
    3 | 18: 43: 49 | 01: 36: 44 | 84274 | 91517
    4 | 20: 20: 18 | 05: 48: 03 | 91518 | 117620
    5 | 26: 08: 21 | 06: 11: 01 | 117621 | 145446
    6 | 32: 19: 22 | 07: 10: 21 | 145447 | 177717
    7 | 39: 29: 43 | 01: 28: 16 | 177718 | 184333
    8 | 40: 57: 59 | 15: 27: 28 | 184334 | 253886
    AccurateRip Summary (DiscID: 0010c160-006d6785-640d3908)
    Track 01 : OK (v2, confidence 1/1)
    Track 02 : OK (v2, confidence 1/1)
    Track 03 : OK (v2, confidence 1/1)
    Track 04 : OK (v2, confidence 1/1)
    Track 05 : OK (v2, confidence 1/1)
    Track 06 : OK (v2, confidence 1/1)
    Track 07 : OK (v2, confidence 1/1)
    Track 08 : OK (v2, confidence 1/1)
    -All tracks accurately ripped.
    All Tracks
    Album gain : 0.21 dB
    Peak : 1.000000
    Statistics
    Read error : 0
    Jitter error (maybe fixed) : 0
    Retry sector count : 0
    Damaged sector count : 0
    Track 01
    Filename : /Users/monocacycoffee/Music/ジョージ大塚 TRIO - PAGE 1+1 (14 Remaster) (1968) v0/01 PAGE 1.mp3
    /Users/monocacycoffee/Music/ジョージ大塚 TRIO - PAGE 1+1 (14 Remaster) (1968) FLAC/01 PAGE 1.flac
    Pre-gap length : 00: 02: 00
    Track gain : -1.00 dB
    Peak : 1.000000
    CRC32 hash (test run) : 7E7287C9
    CRC32 hash : 7E7287C9
    CRC32 hash (skip zero) : 326E15D8
    AccurateRip v1 signature : B1CA6209
    AccurateRip v2 signature : D2B9F569
    -Accurately ripped (v2, confidence 1/1)
    Statistics
    Read error : 0
    Jitter error (maybe fixed) : 0
    Retry sector count : 0
    Damaged sector count : 0
    Track 02
    Filename : /Users/monocacycoffee/Music/ジョージ大塚 TRIO - PAGE 1+1 (14 Remaster) (1968) v0/02 BYE BYE BLACKBIRD.mp3
    /Users/monocacycoffee/Music/ジョージ大塚 TRIO - PAGE 1+1 (14 Remaster) (1968) FLAC/02 BYE BYE BLACKBIRD.flac
    Track gain : 2.40 dB
    Peak : 0.920013
    CRC32 hash (test run) : 04C2C6BE
    CRC32 hash : 04C2C6BE
    CRC32 hash (skip zero) : B9D5065F
    AccurateRip v1 signature : 42747D53
    AccurateRip v2 signature : EF1445CD
    -Accurately ripped (v2, confidence 1/1)
    Statistics
    Read error : 0
    Jitter error (maybe fixed) : 0
    Retry sector count : 0
    Damaged sector count : 0
    Track 03
    Filename : /Users/monocacycoffee/Music/ジョージ大塚 TRIO - PAGE 1+1 (14 Remaster) (1968) v0/03 THEME .mp3
    /Users/monocacycoffee/Music/ジョージ大塚 TRIO - PAGE 1+1 (14 Remaster) (1968) FLAC/03 THEME .flac
    Track gain : -1.11 dB
    Peak : 0.843750
    CRC32 hash (test run) : 7276955E
    CRC32 hash : 7276955E
    CRC32 hash (skip zero) : 0E4D0F88
    AccurateRip v1 signature : 548D9F73
    AccurateRip v2 signature : 87EA27DF
    -Accurately ripped (v2, confidence 1/1)
    Statistics
    Read error : 0
    Jitter error (maybe fixed) : 0
    Retry sector count : 0
    Damaged sector count : 0
    Track 04
    Filename : /Users/monocacycoffee/Music/ジョージ大塚 TRIO - PAGE 1+1 (14 Remaster) (1968) v0/04 BLUES FOR ALICE .mp3
    /Users/monocacycoffee/Music/ジョージ大塚 TRIO - PAGE 1+1 (14 Remaster) (1968) FLAC/04 BLUES FOR ALICE .flac
    Pre-gap length : 00: 02: 25
    Track gain : 1.47 dB
    Peak : 0.990997
    CRC32 hash (test run) : 754F51D6
    CRC32 hash : 754F51D6
    CRC32 hash (skip zero) : A5325E4B
    AccurateRip v1 signature : AC1A80F8
    AccurateRip v2 signature : 0358B79A
    -Accurately ripped (v2, confidence 1/1)
    Statistics
    Read error : 0
    Jitter error (maybe fixed) : 0
    Retry sector count : 0
    Damaged sector count : 0
    Track 05
    Filename : /Users/monocacycoffee/Music/ジョージ大塚 TRIO - PAGE 1+1 (14 Remaster) (1968) v0/05 IT MIGHT AS WELL BE SPRING.mp3
    /Users/monocacycoffee/Music/ジョージ大塚 TRIO - PAGE 1+1 (14 Remaster) (1968) FLAC/05 IT MIGHT AS WELL BE SPRING.flac
    Track gain : 4.21 dB
    Peak : 0.768921
    CRC32 hash (test run) : 96C36665
    CRC32 hash : 96C36665
    CRC32 hash (skip zero) : E9E96DAA
    AccurateRip v1 signature : 0E81403C
    AccurateRip v2 signature : 3D211AE3
    -Accurately ripped (v2, confidence 1/1)
    Statistics
    Read error : 0
    Jitter error (maybe fixed) : 0
    Retry sector count : 0
    Damaged sector count : 0
    Track 06
    Filename : /Users/monocacycoffee/Music/ジョージ大塚 TRIO - PAGE 1+1 (14 Remaster) (1968) v0/06 POTATO CHIPS .mp3
    /Users/monocacycoffee/Music/ジョージ大塚 TRIO - PAGE 1+1 (14 Remaster) (1968) FLAC/06 POTATO CHIPS .flac
    Track gain : 0.62 dB
    Peak : 0.847931
    CRC32 hash (test run) : 673C6357
    CRC32 hash : 673C6357
    CRC32 hash (skip zero) : AE553593
    AccurateRip v1 signature : 1A863BB6
    AccurateRip v2 signature : B8E65C56
    -Accurately ripped (v2, confidence 1/1)
    Statistics
    Read error : 0
    Jitter error (maybe fixed) : 0
    Retry sector count : 0
    Damaged sector count : 0
    Track 07
    Filename : /Users/monocacycoffee/Music/ジョージ大塚 TRIO - PAGE 1+1 (14 Remaster) (1968) v0/07 THEME .mp3
    /Users/monocacycoffee/Music/ジョージ大塚 TRIO - PAGE 1+1 (14 Remaster) (1968) FLAC/07 THEME .flac
    Track gain : -1.26 dB
    Peak : 0.999969
    CRC32 hash (test run) : E4055038
    CRC32 hash : E4055038
    CRC32 hash (skip zero) : E7EEFD39
    AccurateRip v1 signature : 6952A288
    AccurateRip v2 signature : 67435516
    -Accurately ripped (v2, confidence 1/1)
    Statistics
    Read error : 0
    Jitter error (maybe fixed) : 0
    Retry sector count : 0
    Damaged sector count : 0
    Track 08
    Filename : /Users/monocacycoffee/Music/ジョージ大塚 TRIO - PAGE 1+1 (14 Remaster) (1968) v0/08 PAGE 1<Live> .mp3
    /Users/monocacycoffee/Music/ジョージ大塚 TRIO - PAGE 1+1 (14 Remaster) (1968) FLAC/08 PAGE 1<Live> .flac
    Pre-gap length : 00: 02: 26
    Track gain : -0.66 dB
    Peak : 1.000000
    CRC32 hash (test run) : C11C7678
    CRC32 hash : C11C7678
    CRC32 hash (skip zero) : C3E63FC0
    AccurateRip v1 signature : 065522C6
    AccurateRip v2 signature : 3BDCDCF7
    -Accurately ripped (v2, confidence 1/1)
    Statistics
    Read error : 0
    Jitter error (maybe fixed) : 0
    Retry sector count : 0
    Damaged sector count : 0
    No errors occurred
    End of status report
    -----BEGIN XLD SIGNATURE-----
    gT7j14Gbscx8Ah5JYj.BuSy2LUek4YY4_UYRxx1Js3DiV6HXedAznywAd5ggrOdneb51q_zgsyK8X4LoK0qJKh1Vh7nkcgfopxYHa.W
    -----END XLD SIGNATURE-----

    TITLE Page 1
    PERFORMER George Otsuka
    CATALOG 4988001758075
    REM GENRE Jazz
    REM DATE 1968
    REM DISCID 640D3908
    REM REPLAYGAIN_ALBUM_GAIN 0.21 dB
    REM REPLAYGAIN_ALBUM_PEAK 1.000000
    FILE 01 - Page 1.flac WAVE
    TRACK 01 AUDIO
    TITLE Page 1
    ISRC JPCO06930160
    REM REPLAYGAIN_TRACK_GAIN -1.00 dB
    REM REPLAYGAIN_TRACK_PEAK 1.000000
    INDEX 01 00: 00: 00
    FILE 02 - Bye Bye Blackbird.flac WAVE
    TRACK 02 AUDIO
    TITLE Bye Bye Blackbird
    ISRC JPCO06930170
    REM REPLAYGAIN_TRACK_GAIN 2.40 dB
    REM REPLAYGAIN_TRACK_PEAK 0.920013
    INDEX 01 00: 00: 00
    FILE 03 - Theme.flac WAVE
    TRACK 03 AUDIO
    TITLE Theme
    ISRC JPCO06930180
    REM REPLAYGAIN_TRACK_GAIN -1.11 dB
    REM REPLAYGAIN_TRACK_PEAK 0.843750
    INDEX 01 00: 00: 00
    TRACK 04 AUDIO
    TITLE Blues for Alice
    ISRC JPCO06930190
    REM REPLAYGAIN_TRACK_GAIN 1.47 dB
    REM REPLAYGAIN_TRACK_PEAK 0.990997
    INDEX 00 01: 34: 19
    FILE 04 - Blues for Alice.flac WAVE
    INDEX 01 00: 00: 00
    FILE 05 - It Might as Well Be Spring.flac WAVE
    TRACK 05 AUDIO
    TITLE It Might as Well Be Spring
    ISRC JPCO06930200
    REM REPLAYGAIN_TRACK_GAIN 4.21 dB
    REM REPLAYGAIN_TRACK_PEAK 0.768921
    INDEX 01 00: 00: 00
    FILE 06 - Potato Chips.flac WAVE
    TRACK 06 AUDIO
    TITLE Potato Chips
    ISRC JPCO06930210
    REM REPLAYGAIN_TRACK_GAIN 0.62 dB
    REM REPLAYGAIN_TRACK_PEAK 0.847931
    INDEX 01 00: 00: 00
    FILE 07 - Theme.flac WAVE
    TRACK 07 AUDIO
    TITLE Theme
    ISRC JPCO06930220
    REM REPLAYGAIN_TRACK_GAIN -1.26 dB
    REM REPLAYGAIN_TRACK_PEAK 0.999969
    INDEX 01 00: 00: 00
    TRACK 08 AUDIO
    TITLE Page 1 (Live from \'All Japan Jazz Festival \'68\')
    ISRC JPCO06822400
    REM REPLAYGAIN_TRACK_GAIN -0.66 dB
    REM REPLAYGAIN_TRACK_PEAK 1.000000
    INDEX 00 01: 25: 65
    FILE 08 - Page 1 (Live from \'All Japan Jazz Festival \'68\').flac WAVE
    INDEX 01 00: 00: 00

    -----------------------
    DON\'T MODIFY THIS FILE
    -----------------------
    PERFORMER: auCDtect Task Manager, ver. 1.6.0 RC1 build 1.6.0.1
    Copyright (c) 2008-2010 y-soft. All rights reserved
    http://y-soft.org
    ANALYZER: auCDtect: CD records authenticity detector, version 0.8.2
    Copyright (c) 2004 Oleg Berngardt. All rights reserved.
    Copyright (c) 2004 Alexander Djourik. All rights reserved.
    FILE: 08 - Page 1 (Live from \'All Japan Jazz Festival \'68\').flac
    Size: 95865303 Hash: FC58517A36C29FCA2DA6B2A79A4A0EEC Accuracy: -m0
    Conclusion: CDDA 100%
    Signature: 9184EAF49B321247E6C28A46C5DE3DDBB8AC8608
    FILE: 07 - Theme.flac
    Size: 8234248 Hash: 7127560AA38D8A8711BBF4CD815DDEE6 Accuracy: -m0
    Conclusion: CDDA 100%
    Signature: BB805BD310DFEDEF398154A3C0729C5ADFA525DB
    FILE: 06 - Potato Chips.flac
    Size: 40636897 Hash: 1ADC2B6E8F4E118179DD67D875AD940C Accuracy: -m0
    Conclusion: CDDA 100%
    Signature: DA204830B7A09E3BEE25DA8035803933AE7643F3
    FILE: 05 - It Might as Well Be Spring.flac
    Size: 32763462 Hash: B3EE0CAC1983E285532DE60EB38C1C0B Accuracy: -m0
    Conclusion: CDDA 100%
    Signature: 695BC915AB47AB98C2205CA7CBDD899FC1536BA2
    FILE: 04 - Blues for Alice.flac
    Size: 34438748 Hash: F85A5AA73DE0B4D9A1178065C536894E Accuracy: -m0
    Conclusion: CDDA 100%
    Signature: 4EE4EC6F32CB9DFCE17A849AA07434DF736B575B
    FILE: 03 - Theme.flac
    Size: 8916370 Hash: 9CDFF6EE5BEF381F2819E15E0E8DA930 Accuracy: -m0
    Conclusion: CDDA 100%
    Signature: 556DC2FC524BFB7069C39B02D8B992B88C5E54A7
    FILE: 02 - Bye Bye Blackbird.flac
    Size: 49285841 Hash: B37F9BC6988C7025C4E04D909511EA37 Accuracy: -m0
    Conclusion: CDDA 100%
    Signature: 2A8EAC16BA2C264E143FDFDC08269B7F9C520E2C
    FILE: 01 - Page 1.flac
    Size: 56021356 Hash: 757F7CB19748DF5402E852FAA9DD8025 Accuracy: -m0
    Conclusion: CDDA 100%
    Signature: FBFE7D838B69363A7DFDCB04791850746BFAEAC6


    George Otsuka Trio - Page 1 (1967) 2014, Nippon Columbia [FLAC|Lossless|tracks + .cue] <Post-Bop>
    Рейтинг →
     (голосов: 1, оценка 3/5, голосовать можно 1 раз )

    Другие торренты по теме:

  • Sunao Wada, Ushio Sakai, George Otsuka - Blues For Bird (1975) Remaster, 2000, Three Blind Mice[FLAC|Lossless|tracks + .cue] <Post-Bop, Contemporary Jazz>
  • George Otsuka Trio - Last Summer: Page 3 (1969) 2014, Nippon Columbia [FLAC|Lossless|tracks + .cue] <Post-Bop>
  • George Otsuka Trio - Page 2 (1968) 2014, Nippon Columbia [FLAC|Lossless|tracks + .cue] <Post-Bop, Piano Jazz>


    • Комментарии (0):

      Информация

      Информация

        Посетители, находящиеся в группе Гости, не могут оставлять комментарии в данной новости.

        ↓ Меню




        ↓ Опрос

        Вы добавили сайт в закладки?
        Да
        Нет


        Top 10 за месяц (Музыка)