.
Авторизация | Регистрация
Хочешь лучшие торренты? Добавь свой email!
Добавить

Торрент скачать бесплатно

  • support: webmaster@btracker.club
» » Shelly Manne & His Men - West Coast Jazz In England (1960) 2011, Solar Records [FLAC|Lossless|tracks + .cue] <Cool, West Coast Jazz> торрент скачать бесплатно


    Shelly Manne & His Men - West Coast Jazz In England (1960) 2011, Solar Records [FLAC|Lossless|tracks + .cue] <Cool, West Coast Jazz> торрент скачать бесплатно

    Опубликовал: fregat | Дата: 12-05-2017, 05:00 | .torrent скачали: 0

    Shelly Manne & His Men - West Coast Jazz In England (1960) 2011, Solar Records [FLAC|Lossless|tracks + .cue] &ltCool, West Coast Jazz>Жанр: Cool, West Coast Jazz
    Издание: Solar Records - 4569886
    Продолжительность: 01: 03: 28
    Кодек: FLAC (tracks+.cue)
    Битрейт: Lossless
    Источник (релизер): ruskaval
    Страна-производитель диска: EU
    Наличие сканов в содержимом раздачи: да

    Треклист

    01. Our Delight 06: 54
    02. Bag\'s Groove 11: 26
    03. Nightingale 06: 25
    04. The Vamp\'s Blues 10: 40
    05. I\'ve Grown Accustomed To Her Face 04: 11
    06. Cabu 07: 05
    07. Straight, No Chaser 08: 29
    08. Yesterdays 08: 22

    Exact Audio Copy V1.1 from 23. June 2015
    EAC extraction logfile from 4. May 2017, 13: 26
    Shelly Manne His Men/West Coast Jazz In England
    Used drive : TSSTcorpCDDVDW SE-208DB Adapter: 1 ID: 2
    Read mode : Secure
    Utilize accurate stream : Yes
    Defeat audio cache : Yes
    Make use of C2 pointers : No
    Read offset correction : 6
    Overread into Lead-In and Lead-Out : No
    Fill up missing offset samples with silence : Yes
    Delete leading and trailing silent blocks : No
    Null samples used in CRC calculations : Yes
    Used interface : Native Win32 interface for Win NT 2000
    Gap handling : Appended to previous track
    Used output format : User Defined Encoder
    Selected bitrate : 1024 kBit/s
    Quality : High
    Add ID3 tag : No
    Command line compressor : C: Program Files (x86)FLAC Frontendtoolsflac.exe
    Additional command line options : -8 -V -T ARTIST=%artist% -T TITLE=%title% -T ALBUM=%albumtitle% -T DATE=%year% -T TRACKNUMBER=%tracknr% -T TOTALTRACKS=%numtracks% -T GENRE=%genre% -T ALBUMARTIST=%albumartist% -T ALBUM ARTIST=%albumartist% -T COMMENT=EAC Secure Mode, Test Copy, AccurateRip, FLAC -8 %source%
    TOC of the extracted CD
    Track | Start | Length | Start sector | End sector
    ---------------------------------------------------------
    1 | 0: 00.00 | 6: 53.49 | 0 | 31023
    2 | 6: 53.49 | 11: 25.10 | 31024 | 82408
    3 | 18: 18.59 | 6: 24.68 | 82409 | 111276
    4 | 24: 43.52 | 10: 39.12 | 111277 | 159213
    5 | 35: 22.64 | 4: 10.31 | 159214 | 177994
    6 | 39: 33.20 | 7: 04.72 | 177995 | 209866
    7 | 46: 38.17 | 8: 28.43 | 209867 | 248009
    8 | 55: 06.60 | 8: 21.10 | 248010 | 285594
    Track 1
    Filename D: _EACShelly Manne His Men - West Coast Jazz In England (1960) FLAC1 - Our Delight.wav
    Pre-gap length 0: 00: 02.00
    Peak level 86.3 %
    Extraction speed 2.7 X
    Track quality 99.9 %
    Test CRC BFF636D2
    Copy CRC BFF636D2
    Track not present in AccurateRip database
    Copy OK
    Track 2
    Filename D: _EACShelly Manne His Men - West Coast Jazz In England (1960) FLAC2 - Bag\'s Groove.wav
    Peak level 90.4 %
    Extraction speed 3.8 X
    Track quality 100.0 %
    Test CRC A26F8CB9
    Copy CRC A26F8CB9
    Track not present in AccurateRip database
    Copy OK
    Track 3
    Filename D: _EACShelly Manne His Men - West Coast Jazz In England (1960) FLAC3 - Nightingale.wav
    Peak level 89.0 %
    Extraction speed 4.1 X
    Track quality 100.0 %
    Test CRC CB80F9FC
    Copy CRC CB80F9FC
    Track not present in AccurateRip database
    Copy OK
    Track 4
    Filename D: _EACShelly Manne His Men - West Coast Jazz In England (1960) FLAC4 - The Vamp\'s Blues.wav
    Peak level 91.6 %
    Extraction speed 4.7 X
    Track quality 100.0 %
    Test CRC A604E9F7
    Copy CRC A604E9F7
    Track not present in AccurateRip database
    Copy OK
    Track 5
    Filename D: _EACShelly Manne His Men - West Coast Jazz In England (1960) FLAC5 - I\'ve Grown Accustomed To Her Face.wav
    Peak level 85.4 %
    Extraction speed 4.5 X
    Track quality 100.0 %
    Test CRC BCC2C7D2
    Copy CRC BCC2C7D2
    Track not present in AccurateRip database
    Copy OK
    Track 6
    Filename D: _EACShelly Manne His Men - West Coast Jazz In England (1960) FLAC6 - Cabu.wav
    Peak level 87.1 %
    Extraction speed 4.4 X
    Track quality 99.9 %
    Test CRC 04E2761F
    Copy CRC 04E2761F
    Track not present in AccurateRip database
    Copy OK
    Track 7
    Filename D: _EACShelly Manne His Men - West Coast Jazz In England (1960) FLAC7 - Straight, No Chaser.wav
    Peak level 100.0 %
    Extraction speed 5.4 X
    Track quality 100.0 %
    Test CRC FD328765
    Copy CRC FD328765
    Track not present in AccurateRip database
    Copy OK
    Track 8
    Filename D: _EACShelly Manne His Men - West Coast Jazz In England (1960) FLAC8 - Yesterdays.wav
    Peak level 100.0 %
    Extraction speed 5.6 X
    Track quality 100.0 %
    Test CRC 6A388DA3
    Copy CRC 6A388DA3
    Track not present in AccurateRip database
    Copy OK
    None of the tracks are present in the AccurateRip database
    No errors occurred
    End of status report
    ==== Log checksum 55F1257F2A10BFBC4E62449280F2678893C2FB4FE365D47F85B81B391A5AF99F ====

    REM GENRE Jazz
    REM DATE 1960
    REM DISCID 520EDF08
    REM COMMENT ExactAudioCopy v1.1
    PERFORMER Shelly Manne His Men
    TITLE West Coast Jazz In England
    FILE 01 - Our Delight.wav WAVE
    TRACK 01 AUDIO
    TITLE Our Delight
    PERFORMER Shelly Manne His Men
    INDEX 01 00: 00: 00
    FILE 02 - Bag\'s Groove.wav WAVE
    TRACK 02 AUDIO
    TITLE Bag\'s Groove
    PERFORMER Shelly Manne His Men
    INDEX 01 00: 00: 00
    FILE 03 - Nightingale.wav WAVE
    TRACK 03 AUDIO
    TITLE Nightingale
    PERFORMER Shelly Manne His Men
    INDEX 01 00: 00: 00
    FILE 04 - The Vamp\'s Blues.wav WAVE
    TRACK 04 AUDIO
    TITLE The Vamp\'s Blues
    PERFORMER Shelly Manne His Men
    INDEX 01 00: 00: 00
    FILE 05 - I\'ve Grown Accustomed To Her Face.wav WAVE
    TRACK 05 AUDIO
    TITLE I\'ve Grown Accustomed To Her Face
    PERFORMER Shelly Manne His Men
    INDEX 01 00: 00: 00
    FILE 06 - Cabu.wav WAVE
    TRACK 06 AUDIO
    TITLE Cabu
    PERFORMER Shelly Manne His Men
    INDEX 01 00: 00: 00
    FILE 07 - Straight, No Chaser.wav WAVE
    TRACK 07 AUDIO
    TITLE Straight, No Chaser
    PERFORMER Shelly Manne His Men
    INDEX 01 00: 00: 00
    FILE 08 - Yesterdays.wav WAVE
    TRACK 08 AUDIO
    TITLE Yesterdays
    PERFORMER Shelly Manne His Men
    INDEX 01 00: 00: 00

    -----------------------
    DON\'T MODIFY THIS FILE
    -----------------------
    PERFORMER: auCDtect Task Manager, ver. 1.6.0 RC1 build 1.6.0.1
    Copyright (c) 2008-2010 y-soft. All rights reserved
    http://y-soft.org
    ANALYZER: auCDtect: CD records authenticity detector, version 0.8.2
    Copyright (c) 2004 Oleg Berngardt. All rights reserved.
    Copyright (c) 2004 Alexander Djourik. All rights reserved.
    FILE: 08 - Yesterdays.flac
    Size: 37516719 Hash: E9FAB6BEB329301EC44B4DA5EE906FD6 Accuracy: -m0
    Conclusion: CDDA 100%
    Signature: CE5135CAC2A7EFF29D77DF3A3C8965A27FF9691A
    FILE: 07 - Straight, No Chaser.flac
    Size: 42137354 Hash: EE998D14B89FF8CBDFB83BD7B8F8845F Accuracy: -m0
    Conclusion: CDDA 100%
    Signature: 40A493133A3DF9E657D6A314116A2E057B1BFB7F
    FILE: 06 - Cabu.flac
    Size: 20483694 Hash: E4938D383FB0058476F184DB06392C7C Accuracy: -m0
    Conclusion: CDDA 99%
    Signature: 2C0B7ECAC0558B37264C05C7B6898078C82A8FDC
    FILE: 05 - I\'ve Grown Accustomed To Her Face.flac
    Size: 10702811 Hash: 54B204580462CF3ECE082618578C687A Accuracy: -m0
    Conclusion: CDDA 100%
    Signature: F662ADDD567860EAF9D73DA8C8CB6ECEB2E8DFA7
    FILE: 04 - The Vamp\'s Blues.flac
    Size: 32205048 Hash: 51D662EC49ED65EA568C615ECCBD023C Accuracy: -m0
    Conclusion: CDDA 100%
    Signature: BA7E2B5EB790885EB590DB672E4884F6CA079CCE
    FILE: 03 - Nightingale.flac
    Size: 20256782 Hash: 68D8C745A89E63412F79CEC9316DBA8F Accuracy: -m0
    Conclusion: CDDA 100%
    Signature: E61727B8AE53D9D9310AA33FD9D75D90457BAD03
    FILE: 02 - Bag\'s Groove.flac
    Size: 31562630 Hash: 7E98BDBCA5216FCDE6AFA6A48E3B6CD5 Accuracy: -m0
    Conclusion: CDDA 100%
    Signature: DF541E6C00F58A8B1D3A1CF0C09A116AFE763AE2
    FILE: 01 - Our Delight.flac
    Size: 21837293 Hash: 9BC21A575C6012EBE3E1C2FBAEFC4EC4 Accuracy: -m0
    Conclusion: CDDA 100%
    Signature: A6270B0F16C13E5A04289E4E0F869F87ACBD2C59


    Shelly Manne & His Men - West Coast Jazz In England (1960) 2011, Solar Records [FLAC|Lossless|tracks + .cue] <Cool, West Coast Jazz>
    Рейтинг →
     (голосов: 1, оценка 4/5, голосовать можно 1 раз )

    Другие торренты по теме:

  • Joe Sample, Ray Brown, Shelly Manne - The Three (1975) / 1978, Jasrac / [FLAC|tracks+.cue]<Jazz, Jazz Fusion> скачать через торрент бесплатно
  • Shelly Manne and His Men - Septet and Quintet Sessions 1951-1958 (2008) (3CDs) [FLAC|tracks+.cue]<Jazz, Bebop, West coast jazz, Third Stream, Fusion> скачать через торрент бесплатно
  • Shelly Manne - 2 3 4 (1962) Remaster, 2012, Universal[FLAC|Lossless|image + .cue] <Bop, Cool>
  • Shelly Manne - Perk Up (1976) 1995, Concord Jazz [FLAC|Lossless|tracks + .cue] <Mainstream Jazz, Post-Bop>


    • Комментарии (0):

      Информация

      Информация

        Посетители, находящиеся в группе Гости, не могут оставлять комментарии в данной новости.

        ↓ Меню




        ↓ Опрос

        Вы добавили сайт в закладки?
        Да
        Нет


        Top 10 за месяц (Музыка)