.
Авторизация | Регистрация
Хочешь лучшие торренты? Добавь свой email!
Добавить

Торрент скачать бесплатно

  • support: webmaster@btracker.club
» » Рик и Морти / Rick and Morty (2015) WEB-DL [H.264 / 1080p] (Сезон 2, серии 1-10 из 10) Сыендук [EN / RU Sub] скачать через торрент бесплатно


    Рик и Морти / Rick and Morty (2015) WEB-DL [H.264 / 1080p] (Сезон 2, серии 1-10 из 10) Сыендук [EN / RU Sub] скачать через торрент бесплатно

    Опубликовал: fregat | Дата: 20-10-2015, 04:03 | .torrent скачали: 162

    Рик и Морти / Rick and Morty (2015) WEB-DL [H.264 / 1080p] (Сезон 2, серии 1-10 из 10) Сыендук [EN / RU Sub] скачать через торрент бесплатноПроизводство: США
    Жанр: Для взрослых, Комедия, Приключения, фантастика, adult swim
    Режиссер: Джастин Ройланд, Дэн Хармон

    Описание

    Анимационная фантастическая комедия “Рик и Морти” познакомит вас с двумя главными героями этой невероятной истории. Это самый простой и особо ничем не выдающийся мальчик по имени Морти и его сумасшедший дед Рик, которого в отличие от внука, ординарным и скучным не назовешь.
    Рик - давний алкоголик, часто заглядывающий в бутылку, но на самом деле, за этим образом пропойцы скрывается гениальнейший ученый-изобретатель. Наших героев ждет масса сногсшибательных приключений, так как благодаря сумасшествию деда, они постоянно оказывается в каких-то неординарных и откровенно говоря катастрофических ситуациях.


    Продолжительность: ~ 00: 22: 00
    Перевод: Одноголосый закадровый
    Озвучка/Автор перевода: Сыендук
    Язык субтитров: русские (forced) 2-я серия, английские
    Вид субтитров: Вшитые отключаемые
    Качество: WEB-DL 1080p
    Формат: MKV
    Видео:
    * AVC, 1916x1076, 23, 976 fps, ~5000 kbps(1-2, 5-8 серии)
    * AVC, 1920x1080, 23, 976 fps, ~5000 kbps(3, 4, 9, 10 серии)
    Аудио Rus: AC3, 48Chz, 2 ch, 160 kbps (Сыендук)
    Аудио Eng: AC3, 48Chz, 6 ch, 384 kbps
    Субтитры: русские (forced) 2-я серия, английские
    Код:

    General
    Unique ID : 193595471834371864654389920588222288186 (0x91A521B286F822A2AAA681906811D13A)
    Complete name : D:Video5Rick and Morty (Season 2) WEB-DL 1080p1. A Rickle in Time.mkv
    Format : Matroska
    Format version : Version 4/Version 2
    File size : 909 MiB
    Duration : 22mn 52s
    Overall bit rate : 5 556 Kbps
    Encoded date : UTC 2015-09-21 23:23:56
    Writing application : mkvmerge v8.2.0 (\'World of Adventure\') 64bit
    Writing library : libebml v1.3.1 + libmatroska v1.4.2
    Attachements : cover.jpeg
    DURATION : 00:22:46.364000000
    NUMBER_OF_FRAMES : 650
    NUMBER_OF_BYTES : 23750
    _STATISTICS_WRITING_APP : mkvmerge v8.2.0 (\'World of Adventure\') 64bit
    _STATISTICS_WRITING_DATE_UTC : 2015-09-21 23:23:56
    _STATISTICS_TAGS : BPS DURATION NUMBER_OF_FRAMES NUMBER_OF_BYTES
    Video
    ID : 1
    Format : AVC
    Format/Info : Advanced Video Codec
    Format profile :High@L4.0
    Format settings, CABAC : Yes
    Format settings, ReFrames : 4 frames
    Codec ID : V_MPEG4/ISO/AVC
    Duration : 22mn 52s
    Bit rate : 4 902 Kbps
    Width : 1 916 pixels
    Height : 1 076 pixels
    Display aspect ratio : 16:9
    Frame rate mode : Constant
    Frame rate : 23.976 fps
    Color space : YUV
    Chroma subsampling : 4:2:0
    Bit depth : 8 bits
    Scan type : Progressive
    Bits/(Pixel*Frame) : 0.099
    Stream size : 802 MiB (88%)
    Language : English
    Default : Yes
    Forced : No
    Color primaries : BT.709
    Transfer characteristics : BT.709
    Matrix coefficients : BT.709
    Color range : Limited
    Audio #1
    ID : 2
    Format : AC-3
    Format/Info : Audio Coding 3
    Mode extension : CM (complete main)
    Format settings, Endianness : Big
    Codec ID : A_AC3
    Duration : 22mn 52s
    Bit rate mode : Constant
    Bit rate : 160 Kbps
    Channel(s) : 2 channels
    Channel positions : Front: L R
    Sampling rate : 48.0 KHz
    Bit depth : 16 bits
    Compression mode : Lossy
    Stream size : 26.2 MiB (3%)
    Title : Сыендук
    Language : Russian
    Default : Yes
    Forced : No
    Audio #2
    ID : 3
    Format : AC-3
    Format/Info : Audio Coding 3
    Mode extension : CM (complete main)
    Format settings, Endianness : Big
    Codec ID : A_AC3
    Duration : 22mn 52s
    Bit rate mode : Constant
    Bit rate : 384 Kbps
    Channel(s) : 6 channels
    Channel positions : Front: L C R, Side: L R, LFE
    Sampling rate : 48.0 KHz
    Bit depth : 16 bits
    Compression mode : Lossy
    Stream size : 62.8 MiB (7%)
    Language : English
    Default : No
    Forced : No
    Text
    ID : 4
    Format : UTF-8
    Codec ID : S_TEXT/UTF8
    Codec ID/Info : UTF-8 Plain Text
    Language : English
    Default : No
    Forced : No


    Скриншоты для ознакомления




    Онлайн видео Рик и Морти



    Рик и Морти/Rick and Morty (2015) WEB-DL [H.264/1080p] (Сезон 2, серии 1-10 из 10) Сыендук [EN/RU Sub]
    Рейтинг →
     (голосов: 1, оценка 4/5, голосовать можно 1 раз )

    Другие торренты по теме:

  • Рик и Морти / Rick and Morty (2015) WEB-DLRip [H.264 / 720] (2 Сезон, серия 1 из ) Сыендук [Обновляемая] скачать через торрент бесплатно
  • Рик и Морти / Rick and Morty (2013) BDRip [H.264 / 1080p] (Сезон 1, серии 1-11 из 11) Сыендук [EN Sub] скачать через торрент бесплатно
  • Рик и Морти / Rick and Morty (2015) BDRip [H.264 / 1080p-LQ] (сезон 2, серии 1-10 из 10) Сыендук
  • Рик и Морти / Rick and Morty (2015) BDRip [H.264 / 720p-LQ] (сезон 2, серии 1-10 из 10) Сыендук
  • Рик и Морти / Rick and Morty (2013) BDRip [H.264 / 720p-LQ] (сезон 1, серии 1-11 из 11) Сыендук
  • Рик и Морти / Rick and Morty (2014-2015) BDRip [H.264 / 1080p-LQ] (сезон 1-2, серии 1-21 из 21) Сыендук [Hi444PP]
  • Рик и Морти / Rick and Morty (2013-2015) BDRip [H.264] (сезон 1-2, серии 1-21 из 21) Сыендук
  • Рик и Морти / Rick and Morty (2017) HDTVRip [H.264 / 720p-LQ] (Сезон 3, серии 1-1 из 10) Sunshine Studio


    • Комментарии (0):

      Информация

      Информация

        Посетители, находящиеся в группе Гости, не могут оставлять комментарии в данной новости.

        ↓ Меню




        ↓ Опрос

        Вы добавили сайт в закладки?
        Да
        Нет


        Top 10 за месяц (Мультфильмы)