.
Авторизация | Регистрация

Торрент скачать бесплатно

  • support: webmaster@btracker.club
» » Большой злой лис и другие сказки / Le grand mechant renard et autres contes... (2017) BDRip [H.264 / 1080p-LQ] торрент скачать бесплатно


    Большой злой лис и другие сказки / Le grand mechant renard et autres contes... (2017) BDRip [H.264 / 1080p-LQ] торрент скачать бесплатно

    Дата: 30-04-2019, 05:00 | .torrent скачали: 2

    Большой злой лис и другие сказки / Le grand mechant renard et autres contes... (2017) BDRip [H.264 / 1080p-LQ]Производство: Франция
    Жанр: Комедия, Приключения, Сказка
    Режиссер: Патрик Имбер, Бенжамин Реннер

    Описание

    Если вы полагаете, что в сельской местности царят тишь да гладь, вы крупно ошибаетесь. На самом деле деревенская жизнь полна невероятных событий и приключений. Например, однажды пролётный аист подкидывает кролику и поросёнку ребеночка — с просьбой доставить его по адресу. В иной день лис невольно становится наседкой для троих цыплят, которые кличут его мамой и требуют заботы. А уж как дело доходит до Рождества, тут веселье охватывает всю ферму и окрестные леса.

    Возраст: 6+ (зрителям, достигшим 6 лет)
    Рейтинг MPAA: G (нет возрастных ограничений)
    Продолжительность: 01: 19: 16
    Качество видео: BDRip
    Перевод: Многоголосый закадровый профессиональный
    Субтитры: русские (полные), французские (полные)
    Видео: AVC/H.264, 1920x1080, ~3 Mbps
    Аудио #1: AC3, 6 ch, 384 kbps - русский (MVO, SDI Media)
    Аудио #2: DTS, 6 ch, 1509 kbps - французский

    x264 info: frame I: 962 Avg QP: 14.69 size: 470860
    x264 info: frame P: 38154 Avg QP: 15.86 size: 25735
    x264 info: frame B: 79807 Avg QP: 18.12 size: 4371
    Unique ID : 228684463117737783169840621129847383733 (0xAC0B06895C529ABD92F760D870A1A6B5)
    Complete name : D: TempNNMЛис.2017.1080p.mkv
    Format : Matroska
    Format version : Version 4/Version 2
    File size : 2.71 GiB
    Duration : 1h 19mn
    Overall bit rate : 4 896 Kbps
    Movie name : Le.Grand.Mechant.Renard.et.Autres.Contes.2017.BDRemux
    Encoded date : UTC 2019-04-29 17: 56: 50
    Writing application : mkvmerge v9.8.0 (\'Kuglblids\') 64bit
    Writing library : Lavf57.71.100
    Video
    ID : 1
    Format : AVC
    Format/Info : Advanced Video Codec
    Format profile : High@L4.1
    Format settings, CABAC : Yes
    Format settings, ReFrames : 4 frames
    Codec ID : V_MPEG4/ISO/AVC
    Duration : 1h 19mn
    Bit rate : 3 000 Kbps
    Width : 1 920 pixels
    Height : 1 080 pixels
    Display aspect ratio : 16: 9
    Frame rate mode : Constant
    Frame rate : 25.000 fps
    Color space : YUV
    Chroma subsampling : 4: 2: 0
    Bit depth : 8 bits
    Scan type : Progressive
    Bits/(Pixel*Frame) : 0.058
    Stream size : 1.61 GiB (59%)
    Writing library : x264 core 157 r2935 545de2f
    Encoding settings : cabac=1/ref=4/deblock=1: -3: -3/analyse=0x3: 0x113/me=umh/subme=9/psy=1/psy_rd=1.05: 0.10/mixed_ref=1/me_range=24/chroma_me=1/trellis=2/8x8dct=1/cqm=0/deadzone=21, 11/fast_pskip=0/chroma_qp_offset=-3/threads=5/lookahead_threads=1/sliced_threads=0/nr=0/decimate=1/interlaced=0/bluray_compat=0/constrained_intra=0/bframes=6/b_pyramid=2/b_adapt=2/b_bias=0/direct=1/weightb=1/open_gop=0/weightp=2/keyint=250/keyint_min=25/scenecut=40/intra_refresh=0/rc=2pass/mbtree=0/bitrate=3000/ratetol=1.0/qcomp=0.70/qpmin=3/qpmax=69/qpstep=4/cplxblur=20.0/qblur=0.5/ip_ratio=1.40/pb_ratio=1.30/aq=2: 1.00
    Language : French
    Default : Yes
    Forced : No
    Audio #1
    ID : 2
    Format : AC-3
    Format/Info : Audio Coding 3
    Mode extension : CM (complete main)
    Format settings, Endianness : Big
    Codec ID : A_AC3
    Duration : 1h 19mn
    Bit rate mode : Constant
    Bit rate : 384 Kbps
    Channel(s) : 6 channels
    Channel positions : Front: L C R, Side: L R, LFE
    Sampling rate : 48.0 KHz
    Bit depth : 16 bits
    Compression mode : Lossy
    Stream size : 218 MiB (8%)
    Title : Закадровый | SDI Media
    Language : Russian
    Default : Yes
    Forced : No
    Audio #2
    ID : 3
    Format : DTS
    Format/Info : Digital Theater Systems
    Mode : 16
    Format settings, Endianness : Big
    Codec ID : A_DTS
    Duration : 1h 19mn
    Bit rate mode : Constant
    Bit rate : 1 509 Kbps
    Channel(s) : 6 channels
    Channel positions : Front: L C R, Side: L R, LFE
    Sampling rate : 48.0 KHz
    Bit depth : 24 bits
    Compression mode : Lossy
    Stream size : 856 MiB (31%)
    Language : French
    Default : No
    Forced : No
    Text #1
    ID : 4
    Format : UTF-8
    Codec ID : S_TEXT/UTF8
    Codec ID/Info : UTF-8 Plain Text
    Language : Russian
    Default : Yes
    Forced : No
    Text #2
    ID : 5
    Format : UTF-8
    Codec ID : S_TEXT/UTF8
    Codec ID/Info : UTF-8 Plain Text
    Language : French
    Default : No
    Forced : No

    Скриншоты для ознакомления



    Все одноименные релизы в Клубе
    Время раздачи: 24/7 (до появления первых 3-5 скачавших)


    Онлайн видео Большой злой лис и другие сказки



    Большой злой лис и другие сказки/Le grand mechant renard et autres contes... (2017) BDRip [H.264/1080p-LQ]
    Рейтинг →
     (голосов: 1, оценка 4/5, голосовать можно 1 раз )

    Другие торренты по теме:

  • Большой злой лис и другие сказки / Le grand méchant renard et autres contes... / The Big Bad Fox and Other Tales... (2017) BDRip [H.264 / 720p-LQ] [FR / RU, FR Sub]
  • Большой и злой / Big Bad (2016) WEB-DLRip


    • Комментарии (0):

      Информация

      Информация

        Посетители, находящиеся в группе Гости, не могут оставлять комментарии в данной новости.

        ↓ Меню




        ↓ Опрос

        Вы добавили сайт в закладки?
        Да
        Нет


        Top 10 за месяц (Мультфильмы)