.
Авторизация | Регистрация

Торрент скачать бесплатно

  • support: webmaster@btracker.club
» » Youkoso Japari Park | Welcome to Japari Park | Добро пожаловать в Джапари-парк! [2018, ONA, 12 эп.] WebRip 720p raw торрент скачать бесплатно


    Youkoso Japari Park | Welcome to Japari Park | Добро пожаловать в Джапари-парк! [2018, ONA, 12 эп.] WebRip 720p raw торрент скачать бесплатно

    Дата: 29-04-2019, 05:00 | .torrent скачали: 0

    Youkoso Japari Park | Welcome to Japari Park | Добро пожаловать в Джапари-парк! [2018, ONA, 12 эп.] WebRip 720p rawЖанр: приключения
    Тип: Web
    Продолжительность: 12 эп. по 5 мин.
    Количество серий: 12 из 12
    Выпуск: c 10.08.2018 по 15.04.2019
    Режиссер: Касугамори Харуки
    Ссылки: World-Art, AniDB, MyAnimeList

    Описание

    Гид Мирай и Сервал вместе с друзьями записали историю директора парка, и теперь самое время показать ее зрителям.
    Ответвление второго сезон любимого сериалааKemono Friends 2
    Качество видео: WebRip
    Видео: AVC (High@L4), 1280x720 (16: 9), ~23.976 fps, ~2427 kbps
    Аудио: AAC LC, 2 ch, 44.1 kHz, ~128 kbps |Звук:
    Язык озвучки:
    Субтитры: #1: Английские; #2: Русские
    Перевод: CrunchyRoll

    Скриншоты для ознакомления




    General
    Unique ID : 155493562248212536366557187180353559160 (0x74FAF88456B0C8F0DE5A6EE9DA581A78)
    Complete name : Youkoso Japari Park 720pMultiple SubtitleErai-raws Youkoso Japari Park - 01 720pMultiple Subtitle.mkv
    Format : Matroska
    Format version : Version 4
    File size : 81.0 MiB
    Duration : 4 min 25 s
    Overall bit rate : 2 558 kb/s
    Encoded date : UTC 2019-04-13 04: 10: 53
    Writing application : mkvmerge v26.0.0 (\'In The Game\') 64-bit
    Writing library : libebml v1.3.6 + libmatroska v1.4.9
    Video
    ID : 1
    Format : AVC
    Format/Info : Advanced Video Codec
    Format profile : High@L4
    Format settings : CABAC/6 Ref Frames
    Format settings, CABAC : Yes
    Format settings, ReFrames : 6 frames
    Codec ID : V_MPEG4/ISO/AVC
    Duration : 4 min 25 s
    Bit rate : 2 427 kb/s
    Width : 1 280 pixels
    Height : 720 pixels
    Display aspect ratio : 16: 9
    Frame rate mode : Constant
    Frame rate : 23.976 (24000/1001) FPS
    Color space : YUV
    Chroma subsampling : 4: 2: 0
    Bit depth : 8 bits
    Scan type : Progressive
    Bits/(Pixel*Frame) : 0.110
    Stream size : 76.7 MiB (95%)
    Writing library : x264 core 142
    Encoding settings : cabac=1/ref=6/deblock=1: 1: 1/analyse=0x3: 0x113/me=umh/subme=8/psy=1/psy_rd=0.40: 0.00/mixed_ref=1/me_range=16/chroma_me=1/trellis=1/8x8dct=1/cqm=0/deadzone=21, 11/fast_pskip=1/chroma_qp_offset=-2/threads=10/lookahead_threads=1/sliced_threads=0/nr=0/decimate=1/interlaced=0/bluray_compat=0/constrained_intra=0/bframes=3/b_pyramid=2/b_adapt=2/b_bias=0/direct=3/weightb=1/open_gop=0/weightp=2/keyint=48/keyint_min=25/scenecut=0/intra_refresh=0/rc_lookahead=48/rc=crf/mbtree=1/crf=15.0/qcomp=0.60/qpmin=0/qpmax=69/qpstep=4/vbv_maxrate=4000/vbv_bufsize=6000/crf_max=0.0/nal_hrd=none/filler=0/ip_ratio=1.40/aq=1: 0.60
    Default : Yes
    Forced : No
    Audio
    ID : 2
    Format : AAC LC
    Format/Info : Advanced Audio Codec Low Complexity
    Codec ID : A_AAC-2
    Duration : 4 min 25 s
    Bit rate : 128 kb/s
    Channel(s) : 2 channels
    Channel layout : L R
    Sampling rate : 44.1 kHz
    Frame rate : 43.066 FPS (1024 SPF)
    Compression mode : Lossy
    Delay relative to video : -83 ms
    Stream size : 4.05 MiB (5%)
    Default : Yes
    Forced : No
    Text #1
    ID : 3
    Format : ASS
    Codec ID : S_TEXT/ASS
    Codec ID/Info : Advanced Sub Station Alpha
    Duration : 4 min 15 s
    Bit rate : 168 b/s
    Count of elements : 65
    Compression mode : Lossless
    Stream size : 5.27 KiB (0%)
    Title : English(US)
    Language : English
    Default : Yes
    Forced : No
    Text #2
    ID : 4
    Format : ASS
    Codec ID : S_TEXT/ASS
    Codec ID/Info : Advanced Sub Station Alpha
    Duration : 4 min 15 s
    Bit rate : 206 b/s
    Count of elements : 65
    Compression mode : Lossless
    Stream size : 6.45 KiB (0%)
    Title : Arabic
    Language : Arabic
    Default : No
    Forced : No
    Text #3
    ID : 5
    Format : ASS
    Codec ID : S_TEXT/ASS
    Codec ID/Info : Advanced Sub Station Alpha
    Duration : 4 min 15 s
    Bit rate : 143 b/s
    Count of elements : 68
    Compression mode : Lossless
    Stream size : 4.47 KiB (0%)
    Title : Deutsch
    Language : German
    Default : No
    Forced : No
    Text #4
    ID : 6
    Format : ASS
    Codec ID : S_TEXT/ASS
    Codec ID/Info : Advanced Sub Station Alpha
    Duration : 4 min 15 s
    Bit rate : 157 b/s
    Count of elements : 65
    Compression mode : Lossless
    Stream size : 4.90 KiB (0%)
    Title : Espanol(Espana)
    Language : Spanish
    Default : No
    Forced : No
    Text #5
    ID : 7
    Format : ASS
    Codec ID : S_TEXT/ASS
    Codec ID/Info : Advanced Sub Station Alpha
    Duration : 4 min 15 s
    Bit rate : 157 b/s
    Count of elements : 65
    Compression mode : Lossless
    Stream size : 4.91 KiB (0%)
    Title : Espanol
    Language : Spanish
    Default : No
    Forced : No
    Text #6
    ID : 8
    Format : ASS
    Codec ID : S_TEXT/ASS
    Codec ID/Info : Advanced Sub Station Alpha
    Duration : 4 min 21 s
    Bit rate : 156 b/s
    Count of elements : 65
    Compression mode : Lossless
    Stream size : 5.00 KiB (0%)
    Title : Francais(France)
    Language : French
    Default : No
    Forced : No
    Text #7
    ID : 9
    Format : ASS
    Codec ID : S_TEXT/ASS
    Codec ID/Info : Advanced Sub Station Alpha
    Duration : 4 min 21 s
    Bit rate : 179 b/s
    Count of elements : 68
    Compression mode : Lossless
    Stream size : 5.73 KiB (0%)
    Title : Italiano
    Language : Italian
    Default : No
    Forced : No
    Text #8
    ID : 10
    Format : ASS
    Codec ID : S_TEXT/ASS
    Codec ID/Info : Advanced Sub Station Alpha
    Duration : 4 min 15 s
    Bit rate : 169 b/s
    Count of elements : 65
    Compression mode : Lossless
    Stream size : 5.30 KiB (0%)
    Title : Portugues(Brasil)
    Language : Portuguese
    Default : No
    Forced : No
    Text #9
    ID : 11
    Format : ASS
    Codec ID : S_TEXT/ASS
    Codec ID/Info : Advanced Sub Station Alpha
    Duration : 4 min 21 s
    Bit rate : 271 b/s
    Count of elements : 70
    Compression mode : Lossless
    Stream size : 8.68 KiB (0%)
    Title : Russian
    Language : Russian
    Default : No
    Forced : No
    Время раздачи: круглосуточно


    Онлайн видео Youkoso Japari Park



    Youkoso Japari Park | Welcome to Japari Park | Добро пожаловать в Джапари-парк! [2018, ONA, 12 эп.] WebRip 720p raw
    Рейтинг →
     (голосов: 1, оценка 4/5, голосовать можно 1 раз )

    Другие торренты по теме:

  • Ame-iro Cocoa: Rainy Color e Youkoso / Какао цвета дождя [ТВ-2] [2015, TV, 1 из 12] HDTV 720p Raw скачать через торрент бесплатно
  • Ballroom e Youkoso | Welcome to the Ballroom | Добро пожаловать в танцевальный зал [2017, TV, 1 из 24] WEBRip 720p raw
  • Youkoso Jitsuryoku Shijou Shugi no Kyoushitsu e / Добро пожаловать в класс превосходства [2017, TV, 1 из 12] WEB-DL 720p Raw+Rus
  • Ballroom e Youkoso / Welcome to the Ballroom / Добро пожаловать на паркет [2017, TV, 1 из 24] HDTV 720p Raw+Rus
  • Youkoso Jitsuryoku Shijou Shugi no Kyoushitsu e / Добро пожаловать в класс превосходства [2017, TV, 1 из 12] HDTV 720p raw
  • Youkoso Jitsuryoku Shijou Shugi no Kyoushitsu e | Classroom of the Elite | Добро пожаловать в класс превосходства [2017, TV, 12 эп.] BDrip 1080p raw
  • Ballroom e Youkoso | Welcome to the Ballroom | Добро пожаловать в бальный зал [2017, TV, 24 эп.] BDrip 1080p raw


    • Комментарии (0):

      Информация

      Информация

        Посетители, находящиеся в группе Гости, не могут оставлять комментарии в данной новости.

        ↓ Меню




        ↓ Опрос

        Вы добавили сайт в закладки?
        Да
        Нет


        Top 10 за месяц (Мультфильмы)