.
Авторизация | Регистрация

Торрент скачать бесплатно

  • support: webmaster@btracker.club
» » Гарри Бардин. Лучшие мультфильмы: Серый волк энд Красная Шапочка, Летучий корабль, Адажио, Чуча, Выкрутасы (1979-2000) DVDRip [H.264] торрент скачать бесплатно


    Гарри Бардин. Лучшие мультфильмы: Серый волк энд Красная Шапочка, Летучий корабль, Адажио, Чуча, Выкрутасы (1979-2000) DVDRip [H.264] торрент скачать бесплатно

    Дата: 28-04-2019, 05:00 | .torrent скачали: 1

    Гарри Бардин. Лучшие мультфильмы: Серый волк энд Красная Шапочка, Летучий корабль, Адажио, Чуча, Выкрутасы (1979-2000) DVDRip [H.264]Производство: СССР, Россия
    Жанр: Рисованная анимация, Кукольный
    Режиссер: Гарри Бардин

    Описание

    Гарри Бардин – известный советский и российский аниматор. Лауреат Каннского фестиваля за лучший короткометражный мультфильм (Выкрутасы). Четырехкратный обладатель премии Ника за анимационные проекты Чуча, Чуча 3, Адажио, Серый волк энд Красная шапочка.
    В сборник вошли мультфильмы:
    1. Серый волк энд Красная Шапочка
    2. Летучий корабль
    3. Адажио
    4. Чуча
    5. Выкрутасы
    Продолжительность: 00: 09: 41+00: 09: 48+00: 17: 46+00: 25: 40+00: 24: 23
    Качество видео: DVDRip H.264
    Субтитры: отсутствуют
    Видео: AVC/H.264, 720х552, 720х560, 720х552, 720х544, 720х560, ~1700 kbps
    Аудио: AC3, 2 ch, 192 kbps

    Серый волк энд Красная шапочка . 1990г
    Соскучившись по Бабушке Терезе, мать отправляет Красную Шапочку из Москвы в Париж доставить ей русский праздничный пирог. Проходя через лес, Красная Шапочка встречает особо опасного преступника — Серого Волка, который к тому времени уже съел доктора Айболита и Зайчика. Он расспрашивает её, куда она идёт и с чем её пирог.

    Возраст: 12+ (зрителям, достигшим 12 лет)
    Видео: AVC/H.264, 720х552, ~1700 kbps
    Аудио: AC3, 2 ch, 192 kbps

    Общее
    Уникальный идентификатор : 243443995380522292407104701206246415962 (0xB7259BA91060DE9398C61969B65B5E5A)
    Полное имя : K: СКАЗКИ, МУЛЬТИКИГарри Бардин_Лучшие мультфильмыГарри Бардин Лучшие мультфильмы (Серый волк энд Красная Шапочка; Летучий корабль; Адажио; Чуча; Выкрутасы) 1979-2000)Серый волк энд Красная Шапочка. 1990.mkv
    Формат : Matroska
    Версия формата : Version 4/Version 2
    Размер файла : 348 Мбайт
    Продолжительность : 25 м.
    Общий поток : 1894 Кбит/сек
    Название фильма : Release for Topmost
    Дата кодирования : UTC 2019-04-21 16: 23: 32
    Программа кодирования : mkvmerge v6.2.0 (\'Promised Land\') built on Apr 28 2013 12: 22: 01
    Библиотека кодирования : libebml v1.3.0 + libmatroska v1.4.0
    Видео
    Идентификатор : 1
    Формат : AVC
    Формат/Информация : Advanced Video Codec
    Профиль формата : High@L4.1
    Параметр CABAC формата : Да
    Параметр ReFrames формата : 12 кадров
    Идентификатор кодека : V_MPEG4/ISO/AVC
    Продолжительность : 25 м.
    Битрейт : 1700 Кбит/сек
    Ширина : 720 пикселей
    Высота : 552 пикселя
    Соотношение сторон : 4: 3
    Режим частоты кадров : Постоянный
    Частота кадров : 25, 000 кадров/сек
    Цветовое пространство : YUV
    Субдискретизация насыщенности : 4: 2: 0
    Битовая глубина : 8 бит
    Тип развёртки : Прогрессивная
    Бит/(Пиксели*Кадры) : 0.171
    Размер потока : 306 Мбайт (88%)
    Заголовок : Серый волк энд Красная Шапочка (Release for Topmost)
    Библиотека кодирования : x264 core 146 r2538 121396c
    Настройки программы : cabac=1/ref=12/deblock=1: -3: -3/analyse=0x3: 0x113/me=umh/subme=11/psy=1/psy_rd=1.00: 0.15/mixed_ref=1/me_range=32/chroma_me=1/trellis=2/8x8dct=1/cqm=0/deadzone=21, 11/fast_pskip=0/chroma_qp_offset=-3/threads=12/lookahead_threads=2/sliced_threads=0/nr=0/decimate=0/interlaced=0/bluray_compat=0/constrained_intra=0/bframes=5/b_pyramid=2/b_adapt=2/b_bias=0/direct=3/weightb=1/open_gop=0/weightp=2/keyint=240/keyint_min=23/scenecut=40/intra_refresh=0/rc_lookahead=40/rc=2pass/mbtree=1/bitrate=1700/ratetol=1.0/qcomp=0.60/qpmin=0/qpmax=69/qpstep=4/cplxblur=20.0/qblur=0.5/ip_ratio=1.40/aq=1: 0.90
    Язык : Russian
    Default : Да
    Forced : Нет
    Аудио
    Идентификатор : 2
    Формат : AC-3
    Формат/Информация : Audio Coding 3
    Расширение режима : CM (complete main)
    Параметр Endianness формата : Big
    Идентификатор кодека : A_AC3
    Продолжительность : 25 м.
    Вид битрейта : Постоянный
    Битрейт : 192 Кбит/сек
    Каналы : 2 канала
    Расположение каналов : Front: L R
    Частота : 48, 0 КГц
    Битовая глубина : 16 бит
    Метод сжатия : С потерями
    Размер потока : 35, 3 Мбайт (10%)
    Язык : Russian
    Default : Да
    Forced : Нет

    Скриншоты для ознакомления


    Летучий корабль . 1979г.
    Цветной рисованный фильм по мотивам русской сказки.
    Трубочист Иванушка влюбляется в царевну Забаву, которую царь-отец хочет выдать замуж за богатея Полкана. Забава соглашается стать женой того, кто построит волшебный летучий корабль. Добрый Водяной помогает Иванушке построить корабль, секрет полётов на котором он узнаёт от Бабок-Ёжек, но по простоте выдаёт Полкану…
    Однако, добро и справедливость торжествуют: Иванушка и Забава вместе улетают на корабле, покинув жадного царя и коварного Полкана.

    Возраст: 6+ (зрителям, достигшим 12 лет)
    Видео: AVC/H.264, 720х560, ~1700 kbps
    Аудио: AC3, 2 ch, 192 kbps

    Общее
    Уникальный идентификатор : 176801591763478471238297261772604801355 (0x8502BF7B91A0744CA095F661E6C1814B)
    Полное имя : K: СКАЗКИ, МУЛЬТИКИГарри Бардин_Лучшие мультфильмыГарри Бардин Лучшие мультфильмы (Серый волк энд Красная Шапочка; Летучий корабль; Адажио; Чуча; Выкрутасы) 1979-2000)Летучий корабль.1979 .mkv
    Формат : Matroska
    Версия формата : Version 4/Version 2
    Размер файла : 241 Мбайт
    Продолжительность : 17 м.
    Общий поток : 1894 Кбит/сек
    Название фильма : Release for Topmost
    Дата кодирования : UTC 2019-04-21 18: 23: 33
    Программа кодирования : mkvmerge v6.2.0 (\'Promised Land\') built on Apr 28 2013 12: 22: 01
    Библиотека кодирования : libebml v1.3.0 + libmatroska v1.4.0
    Видео
    Идентификатор : 1
    Формат : AVC
    Формат/Информация : Advanced Video Codec
    Профиль формата : High@L4.1
    Параметр CABAC формата : Да
    Параметр ReFrames формата : 12 кадров
    Идентификатор кодека : V_MPEG4/ISO/AVC
    Продолжительность : 17 м.
    Битрейт : 1700 Кбит/сек
    Ширина : 720 пикселей
    Высота : 560 пикселей
    Соотношение сторон : 1, 286
    Режим частоты кадров : Постоянный
    Частота кадров : 20, 000 кадров/сек
    Цветовое пространство : YUV
    Субдискретизация насыщенности : 4: 2: 0
    Битовая глубина : 8 бит
    Тип развёртки : Прогрессивная
    Бит/(Пиксели*Кадры) : 0.211
    Размер потока : 212 Мбайт (88%)
    Заголовок : Летучий корабль (Release for Topmost)
    Библиотека кодирования : x264 core 146 r2538 121396c
    Настройки программы : cabac=1/ref=12/deblock=1: -3: -3/analyse=0x3: 0x113/me=umh/subme=11/psy=1/psy_rd=1.00: 0.15/mixed_ref=1/me_range=32/chroma_me=1/trellis=2/8x8dct=1/cqm=0/deadzone=21, 11/fast_pskip=0/chroma_qp_offset=-3/threads=12/lookahead_threads=2/sliced_threads=0/nr=0/decimate=0/interlaced=0/bluray_compat=0/constrained_intra=0/bframes=5/b_pyramid=2/b_adapt=2/b_bias=0/direct=3/weightb=1/open_gop=0/weightp=2/keyint=240/keyint_min=23/scenecut=40/intra_refresh=0/rc_lookahead=40/rc=2pass/mbtree=1/bitrate=1700/ratetol=1.0/qcomp=0.60/qpmin=0/qpmax=69/qpstep=4/cplxblur=20.0/qblur=0.5/ip_ratio=1.40/aq=1: 0.90
    Язык : Russian
    Default : Да
    Forced : Нет
    Аудио
    Идентификатор : 2
    Формат : AC-3
    Формат/Информация : Audio Coding 3
    Расширение режима : CM (complete main)
    Параметр Endianness формата : Big
    Идентификатор кодека : A_AC3
    Продолжительность : 17 м.
    Вид битрейта : Постоянный
    Битрейт : 192 Кбит/сек
    Каналы : 2 канала
    Расположение каналов : Front: L R
    Частота : 48, 0 КГц
    Битовая глубина : 16 бит
    Метод сжатия : С потерями
    Размер потока : 24, 4 Мбайт (10%)
    Язык : Russian
    Default : Да
    Forced : Нет

    Скриншоты для ознакомления



    Адажио . 2000г.
    История о трагедии новатора — вождя, пророка, о последствиях прихода в мир новых идей, о том, как искажаются последователями поиски вечных истин. На протяжении всего мультфильма звучит Адажио соль минор Ремо Джадзотто, широко известное как Адажио Альбинони, в исполнении Берлинского Филармонического Оркестра п/у Герберта фон Караяна.

    Возраст: 16+ (зрителям, достигшим 12 лет)
    Видео: AVC/H.264, 720х552, ~1700 kbps
    Аудио: AC3, 2 ch, 192 kbps

    Общее
    Уникальный идентификатор : 200804874957393889716206980365313242665 (0x97119CB6E82B3468992D3847E449F629)
    Полное имя : K: СКАЗКИ, МУЛЬТИКИГарри Бардин_Лучшие мультфильмыГарри Бардин Лучшие мультфильмы (Серый волк энд Красная Шапочка; Летучий корабль; Адажио; Чуча; Выкрутасы) 1979-2000)Адажио.2000.mkv
    Формат : Matroska
    Версия формата : Version 4/Version 2
    Размер файла : 131 Мбайт
    Продолжительность : 9 м. 41 с.
    Общий поток : 1892 Кбит/сек
    Название фильма : Release for Topmost
    Дата кодирования : UTC 2019-04-21 17: 37: 24
    Программа кодирования : mkvmerge v6.2.0 (\'Promised Land\') built on Apr 28 2013 12: 22: 01
    Библиотека кодирования : libebml v1.3.0 + libmatroska v1.4.0
    Видео
    Идентификатор : 1
    Формат : AVC
    Формат/Информация : Advanced Video Codec
    Профиль формата : High@L4.1
    Параметр CABAC формата : Да
    Параметр ReFrames формата : 12 кадров
    Идентификатор кодека : V_MPEG4/ISO/AVC
    Продолжительность : 9 м. 41 с.
    Битрейт : 1700 Кбит/сек
    Ширина : 720 пикселей
    Высота : 552 пикселя
    Соотношение сторон : 4: 3
    Режим частоты кадров : Постоянный
    Частота кадров : 25, 000 кадров/сек
    Цветовое пространство : YUV
    Субдискретизация насыщенности : 4: 2: 0
    Битовая глубина : 8 бит
    Тип развёртки : Прогрессивная
    Бит/(Пиксели*Кадры) : 0.171
    Размер потока : 115 Мбайт (88%)
    Заголовок : Адажио (Release for Topmost)
    Библиотека кодирования : x264 core 146 r2538 121396c
    Настройки программы : cabac=1/ref=12/deblock=1: -3: -3/analyse=0x3: 0x113/me=umh/subme=11/psy=1/psy_rd=1.00: 0.15/mixed_ref=1/me_range=32/chroma_me=1/trellis=2/8x8dct=1/cqm=0/deadzone=21, 11/fast_pskip=0/chroma_qp_offset=-3/threads=12/lookahead_threads=2/sliced_threads=0/nr=0/decimate=0/interlaced=0/bluray_compat=0/constrained_intra=0/bframes=5/b_pyramid=2/b_adapt=2/b_bias=0/direct=3/weightb=1/open_gop=0/weightp=2/keyint=240/keyint_min=23/scenecut=40/intra_refresh=0/rc_lookahead=40/rc=2pass/mbtree=1/bitrate=1700/ratetol=1.0/qcomp=0.60/qpmin=0/qpmax=69/qpstep=4/cplxblur=20.0/qblur=0.5/ip_ratio=1.40/aq=1: 0.90
    Язык : Russian
    Default : Да
    Forced : Нет
    Аудио
    Идентификатор : 2
    Формат : AC-3
    Формат/Информация : Audio Coding 3
    Расширение режима : CM (complete main)
    Параметр Endianness формата : Big
    Идентификатор кодека : A_AC3
    Продолжительность : 9 м. 41 с.
    Вид битрейта : Постоянный
    Битрейт : 192 Кбит/сек
    Каналы : 2 канала
    Расположение каналов : Front: L R
    Частота : 48, 0 КГц
    Битовая глубина : 16 бит
    Метод сжатия : С потерями
    Размер потока : 13, 3 Мбайт (10%)
    Язык : Russian
    Default : Да
    Forced : Нет

    Скриншоты для ознакомления


    Чуча. 1999г.
    Маленький мальчик, уставших от одиночества и невнимания взрослых, сделал себе няню из ненужных вещей, назвав её Чучей. И вот, случилось то, что обычно случается в сказках со всеми неодушевлёнными предметами: няня Чуча ожила…

    Возраст: 16+ (зрителям, достигшим 12 лет)
    Видео: AVC/H.264, 720х544, ~1700 kbps
    Аудио: AC3, 2 ch, 192 kbps

    Общее
    Уникальный идентификатор : 223871763509730442691330683854235745279 (0xA86C22204059605AACDABF9EF5D9BBFF)
    Полное имя : K: СКАЗКИ, МУЛЬТИКИГарри Бардин_Лучшие мультфильмыГарри Бардин Лучшие мультфильмы (Серый волк энд Красная Шапочка; Летучий корабль; Адажио; Чуча; Выкрутасы) 1979-2000)Чуча. 1999.mkv
    Формат : Matroska
    Версия формата : Version 4/Version 2
    Размер файла : 330 Мбайт
    Продолжительность : 24 м.
    Общий поток : 1894 Кбит/сек
    Название фильма : Release for Topmost
    Дата кодирования : UTC 2019-04-21 17: 10: 57
    Программа кодирования : mkvmerge v6.2.0 (\'Promised Land\') built on Apr 28 2013 12: 22: 01
    Библиотека кодирования : libebml v1.3.0 + libmatroska v1.4.0
    Видео
    Идентификатор : 1
    Формат : AVC
    Формат/Информация : Advanced Video Codec
    Профиль формата : High@L4.1
    Параметр CABAC формата : Да
    Параметр ReFrames формата : 12 кадров
    Идентификатор кодека : V_MPEG4/ISO/AVC
    Продолжительность : 24 м.
    Битрейт : 1700 Кбит/сек
    Ширина : 720 пикселей
    Высота : 544 пикселя
    Соотношение сторон : 4: 3
    Режим частоты кадров : Постоянный
    Частота кадров : 25, 000 кадров/сек
    Цветовое пространство : YUV
    Субдискретизация насыщенности : 4: 2: 0
    Битовая глубина : 8 бит
    Тип развёртки : Прогрессивная
    Бит/(Пиксели*Кадры) : 0.174
    Размер потока : 290 Мбайт (88%)
    Заголовок : Чуча (Release for Topmost)
    Библиотека кодирования : x264 core 146 r2538 121396c
    Настройки программы : cabac=1/ref=12/deblock=1: -3: -3/analyse=0x3: 0x113/me=umh/subme=11/psy=1/psy_rd=1.00: 0.15/mixed_ref=1/me_range=32/chroma_me=1/trellis=2/8x8dct=1/cqm=0/deadzone=21, 11/fast_pskip=0/chroma_qp_offset=-3/threads=12/lookahead_threads=2/sliced_threads=0/nr=0/decimate=0/interlaced=0/bluray_compat=0/constrained_intra=0/bframes=5/b_pyramid=2/b_adapt=2/b_bias=0/direct=3/weightb=1/open_gop=0/weightp=2/keyint=240/keyint_min=23/scenecut=40/intra_refresh=0/rc_lookahead=40/rc=2pass/mbtree=1/bitrate=1700/ratetol=1.0/qcomp=0.60/qpmin=0/qpmax=69/qpstep=4/cplxblur=20.0/qblur=0.5/ip_ratio=1.40/aq=1: 0.90
    Язык : Russian
    Default : Да
    Forced : Нет
    Аудио
    Идентификатор : 2
    Формат : AC-3
    Формат/Информация : Audio Coding 3
    Профиль формата : Dolby Digital
    Расширение режима : CM (complete main)
    Параметр Endianness формата : Big
    Идентификатор кодека : A_AC3
    Продолжительность : 24 м.
    Вид битрейта : Постоянный
    Битрейт : 192 Кбит/сек
    Каналы : 2 канала
    Расположение каналов : Front: L R
    Частота : 48, 0 КГц
    Битовая глубина : 16 бит
    Метод сжатия : С потерями
    Размер потока : 33, 5 Мбайт (10%)
    Язык : Russian
    Default : Да
    Forced : Нет

    Скриншоты для ознакомления


    Выкрутасы . 1988г.
    История проволочного человека, который защиту себя от окружающих довел до абсурда, переделав жену, собаку в колючую проволоку, и отгородил себя от окружающего мира.

    Возраст: 0+ (зрителям, достигшим 12 лет)
    Видео: AVC/H.264, 720х560, ~1700 kbps
    Аудио: AC3, 2 ch, 192 kbps

    Общее
    Уникальный идентификатор : 238988643931271689801685018135856445425 (0xB3CB89DFD39EBC838ED221EC4FF077F1)
    Полное имя : K: СКАЗКИ, МУЛЬТИКИГарри Бардин_Лучшие мультфильмыГарри Бардин Лучшие мультфильмы (Серый волк энд Красная Шапочка; Летучий корабль; Адажио; Чуча; Выкрутасы) 1979-2000)Выкрутасы. 1988.mkv
    Формат : Matroska
    Версия формата : Version 4/Version 2
    Размер файла : 133 Мбайт
    Продолжительность : 9 м. 48 с.
    Общий поток : 1892 Кбит/сек
    Название фильма : Release for Topmost
    Дата кодирования : UTC 2019-04-22 04: 19: 10
    Программа кодирования : mkvmerge v6.2.0 (\'Promised Land\') built on Apr 28 2013 12: 22: 01
    Библиотека кодирования : libebml v1.3.0 + libmatroska v1.4.0
    Видео
    Идентификатор : 1
    Формат : AVC
    Формат/Информация : Advanced Video Codec
    Профиль формата : High@L4.1
    Параметр CABAC формата : Да
    Параметр ReFrames формата : 12 кадров
    Идентификатор кодека : V_MPEG4/ISO/AVC
    Продолжительность : 9 м. 48 с.
    Битрейт : 1700 Кбит/сек
    Ширина : 720 пикселей
    Высота : 560 пикселей
    Соотношение сторон : 1, 286
    Режим частоты кадров : Постоянный
    Частота кадров : 25, 000 кадров/сек
    Цветовое пространство : YUV
    Субдискретизация насыщенности : 4: 2: 0
    Битовая глубина : 8 бит
    Тип развёртки : Прогрессивная
    Бит/(Пиксели*Кадры) : 0.169
    Размер потока : 117 Мбайт (88%)
    Заголовок : Выкрутасы (Release for Topmost)
    Библиотека кодирования : x264 core 146 r2538 121396c
    Настройки программы : cabac=1/ref=12/deblock=1: -3: -3/analyse=0x3: 0x113/me=umh/subme=11/psy=1/psy_rd=1.00: 0.15/mixed_ref=1/me_range=32/chroma_me=1/trellis=2/8x8dct=1/cqm=0/deadzone=21, 11/fast_pskip=0/chroma_qp_offset=-3/threads=12/lookahead_threads=2/sliced_threads=0/nr=0/decimate=0/interlaced=0/bluray_compat=0/constrained_intra=0/bframes=5/b_pyramid=2/b_adapt=2/b_bias=0/direct=3/weightb=1/open_gop=0/weightp=2/keyint=240/keyint_min=23/scenecut=40/intra_refresh=0/rc_lookahead=40/rc=2pass/mbtree=1/bitrate=1700/ratetol=1.0/qcomp=0.60/qpmin=0/qpmax=69/qpstep=4/cplxblur=20.0/qblur=0.5/ip_ratio=1.40/aq=1: 0.90
    Язык : Russian
    Default : Да
    Forced : Нет
    Аудио
    Идентификатор : 2
    Формат : AC-3
    Формат/Информация : Audio Coding 3
    Расширение режима : CM (complete main)
    Параметр Endianness формата : Big
    Идентификатор кодека : A_AC3
    Продолжительность : 9 м. 48 с.
    Вид битрейта : Постоянный
    Битрейт : 192 Кбит/сек
    Каналы : 2 канала
    Расположение каналов : Front: L R
    Частота : 48, 0 КГц
    Битовая глубина : 16 бит
    Метод сжатия : С потерями
    Размер потока : 13, 5 Мбайт (10%)
    Язык : Russian
    Default : Да
    Forced : Нет

    Скриншоты для ознакомления



    Скриншоты для ознакомления



    Все одноименные релизы в Клубе
    Время раздачи: 24/7 до 5 скачавших (до появления первых 3-5 скачавших)


    Онлайн видео Гарри Бардин. Лучшие мультфильмы: Серый волк энд Красная Шапочка, Летучий корабль, Адажио, Чуча, Выкрутасы (1979



    Гарри Бардин. Лучшие мультфильмы: Серый волк энд Красная Шапочка, Летучий корабль, Адажио, Чуча, Выкрутасы (1979-2000) DVDRip [H.264]
    Рейтинг →
     (голосов: 1, оценка 5/5, голосовать можно 1 раз )

    Другие торренты по теме:

  • Гарри Поттер и Партия Ленина / Гарри Поттер и Орден Феникса / Harry Potter and the Order of the Phoenix (2009) DVDRip
  • Гарри Ананасов и Ко - Песни оголённых проводов (2014) LP [MP3|320 кб / с]<Rock-n-Roll, Русский Рок>
  • Гарри Поттер и Кубок огня / Harry Potter and the Goblet of Fire (2005) HDRip [H.264] [Ultimate Cut]
  • Гарри Гаррисон | Конные варвары (2014) [MP3] скачать через торрент бесплатно
  • Гарри Поттер и Орден Феникса / Harry Potter and the Order of the Phoenix (2007) HDRip [H.264] [Ultimate Cut]
  • Гаррисон Гарри | Неукротимая планета (Мир смерти - 1) (2005) [MP3]
  • Джоан Роулинг | Гарри Поттер и Кубок огня [2008] [M4B | AAC] скачать через торрент бесплатно
  • Джоан Роулинг | Гарри Поттер и Дары Смерти [2011] [M4B | AAC] скачать через торрент бесплатно


    • Комментарии (0):

      Информация

      Информация

        Посетители, находящиеся в группе Гости, не могут оставлять комментарии в данной новости.

        ↓ Меню




        ↓ Опрос

        Вы добавили сайт в закладки?
        Да
        Нет


        Top 10 за месяц (Мультфильмы)