.
Авторизация | Регистрация

Торрент скачать бесплатно

  • support: webmaster@btracker.club
» » Рилаккума и Каору / Rilakkuma and Kaoru (2019) WEBRip (сезон 1, серии 1-13 из 13) NewStation торрент скачать бесплатно


    Рилаккума и Каору / Rilakkuma and Kaoru (2019) WEBRip (сезон 1, серии 1-13 из 13) NewStation торрент скачать бесплатно

    Дата: 28-04-2019, 05:00 | .torrent скачали: 0

    Рилаккума и Каору / Rilakkuma and Kaoru (2019) WEBRip (сезон 1, серии 1-13 из 13) NewStationПроизводство: Япония, San-X, Netflix
    Жанр: аниме, мультфильм, семейный
    Режиссер: Масахито Кобаяси

    Описание

    Будни офисной работницы Каору и внезапно поселившегося у неё медведя по имени Рилаккума с молнией-застёжкой на спине, который только и хочет, что есть и валяться днями напролёт.

    Релиз от: NewStation
    Продолжительность: ~00: 12: 00 серия
    Качество видео: WEBRip
    Перевод: Многоголосый закадровый, любительский (NewStation)
    Субтитры: отсутствуют
    Видео: Xvid, 720x400, ~1063 Kbps
    Аудио 1: MP3, 2 ch, 128 kbps - Русский (NewStation)
    Аудио 2: MP3, 2 ch, 128 kbps - Английский
    Episode #01
    Episode #02
    Episode #03
    Episode #04
    Episode #05
    Episode #06
    Episode #07
    Episode #08
    Episode #09
    Episode #10
    Episode #11
    Episode #12
    Episode #13

    Общее
    Полное имя : F: NewStationRilakkuma.and.Kaoru.S01.WEBRip.NewStationRilakkuma.and.Kaoru.S01E01.WEBRip.NewStation.avi
    Формат : AVI
    Формат/Информация : Audio Video Interleave
    Размер файла : 120 Мбайт
    Продолжительность : 12 м. 37 с.
    Общий поток : 1334 Кбит/сек
    Программа кодирования : VirtualDubMod 1.5.10.2 (build 2540/release)
    Библиотека кодирования : VirtualDubMod build 2540/release
    Видео
    Идентификатор : 0
    Формат : MPEG-4 Visual
    Профиль формата : Simple@L5
    Параметр BVOP формата : Нет
    Параметр QPel формата : Нет
    Параметр GMC формата : Без точки перехода
    Параметр матрицы формата : Default (H.263)
    Идентификатор кодека : XVID
    Идентификатор кодека/Подсказка : XviD
    Продолжительность : 12 м. 37 с.
    Битрейт : 1063 Кбит/сек
    Ширина : 720 пикселей
    Высота : 400 пикселей
    Соотношение сторон : 16: 9
    Частота кадров : 23, 976 (24000/1001) кадра/сек
    Цветовое пространство : YUV
    Субдискретизация насыщенности : 4: 2: 0
    Битовая глубина : 8 бит
    Тип развёртки : Прогрессивная
    Метод сжатия : С потерями
    Бит/(Пиксели*Кадры) : 0.154
    Размер потока : 96, 0 Мбайт (80%)
    Библиотека кодирования : XviD 67
    Аудио #1
    Идентификатор : 1
    Формат : MPEG Audio
    Версия формата : Version 1
    Профиль формата : Layer 3
    Настройки формата : Joint stereo/MS Stereo
    Идентификатор кодека : 55
    Идентификатор кодека/Подсказка : MP3
    Продолжительность : 12 м. 37 с.
    Вид битрейта : Постоянный
    Битрейт : 128 Кбит/сек
    Каналы : 2 канала
    Частота : 48, 0 КГц
    Метод сжатия : С потерями
    Размер потока : 11, 6 Мбайт (10%)
    Выравнивание : Соединение по промежуткам
    Продолжительность промежутка : 42 мс. (1, 00 видеокадр)
    Время предзагрузки промежутка : 504 мс.
    Аудио #2
    Идентификатор : 2
    Формат : MPEG Audio
    Версия формата : Version 1
    Профиль формата : Layer 3
    Идентификатор кодека : 55
    Идентификатор кодека/Подсказка : MP3
    Продолжительность : 12 м. 36 с.
    Вид битрейта : Постоянный
    Битрейт : 128 Кбит/сек
    Каналы : 2 канала
    Частота : 48, 0 КГц
    Метод сжатия : С потерями
    Размер потока : 11, 5 Мбайт (10%)
    Выравнивание : Разделение по промежуткам
    Продолжительность промежутка : 42 мс. (1, 00 видеокадр)
    Время предзагрузки промежутка : 500 мс.
    Библиотека кодирования : LAMELAME_MAJOR_VERSI

    Скриншоты для ознакомления



    Все одноименные релизы в Клубе
    Время раздачи: 24/7 (круглосуточно) (до появления первых 3-5 скачавших)


    Онлайн видео Рилаккума и Каору



    Рилаккума и Каору/Rilakkuma and Kaoru (2019) WEBRip (сезон 1, серии 1-13 из 13) NewStation
    Рейтинг →
     (голосов: 1, оценка 5/5, голосовать можно 1 раз )

    Другие торренты по теме:

  • Рилаккума и Каору / Rilakkuma and Kaoru (2019) WEB-DL [H.264 / 720p-LQ] (сезон 1, серии 1-13 из 13) NewStation
  • Рилаккума и Каору / Rilakkuma and Kaoru (2019) WEB-DL [H.264 / 1080p-LQ] (сезон 1, серии 1-13 из 13) NewStation


    • Комментарии (0):

      Информация

      Информация

        Посетители, находящиеся в группе Гости, не могут оставлять комментарии в данной новости.

        ↓ Меню




        ↓ Опрос

        Вы добавили сайт в закладки?
        Да
        Нет


        Top 10 за месяц (Мультфильмы)