.
Авторизация | Регистрация

Торрент скачать бесплатно

  • support: webmaster@btracker.club
» » Рилаккума и Каору / Rilakkuma and Kaoru (2019) WEB-DL [H.264 / 720p-LQ] (сезон 1, серии 1-13 из 13) NewStation торрент скачать бесплатно


    Рилаккума и Каору / Rilakkuma and Kaoru (2019) WEB-DL [H.264 / 720p-LQ] (сезон 1, серии 1-13 из 13) NewStation торрент скачать бесплатно

    Дата: 28-04-2019, 05:00 | .torrent скачали: 0

    Рилаккума и Каору / Rilakkuma and Kaoru (2019) WEB-DL [H.264 / 720p-LQ] (сезон 1, серии 1-13 из 13) NewStationПроизводство: Япония, San-X, Netflix
    Жанр: аниме, мультфильм, семейный
    Режиссер: Масахито Кобаяси

    Описание

    Будни офисной работницы Каору и внезапно поселившегося у неё медведя по имени Рилаккума с молнией-застёжкой на спине, который только и хочет, что есть и валяться днями напролёт.

    Релиз от: NewStation
    Продолжительность: ~00: 12: 00 серия
    Качество видео: WEB-DL
    Перевод: Многоголосый закадровый, любительский (NewStation)
    Субтитры: Русские, английские, немецкие, греческие, испанские, французские, итальянские, голландские, португальские, финские, ивритские, индонезийские, японские, корейские, букмолские, польские, португальские, румынские, шведские, тайские, турецкие, китайские
    Видео: AVC/H.264, 1280x720, ~1870 Kbps
    Аудио 1: 48 kHz, EAC-3, 6ch, 640 kbps - Русский (NewStation)
    Аудио 2: 48 kHz, EAC-3, 6ch, 640 kbps - Английский
    Аудио 3: 48 kHz, EAC-3, 6ch, 640 kbps - Японский
    Episode #01
    Episode #02
    Episode #03
    Episode #04
    Episode #05
    Episode #06
    Episode #07
    Episode #08
    Episode #09
    Episode #10
    Episode #11
    Episode #12
    Episode #13

    Общее
    Уникальный идентификатор : 320701253829352620838614446089598424681 (0xF144D0966BDFE9C7A6A3299F8CFC5669)
    Полное имя : F: NewStationRilakkuma.and.Kaoru.S01.WEB-DL.720p.NewStationRilakkuma.and.Kaoru.S01E01.WEB-DL.720p.NewStation.mkv
    Формат : Matroska
    Версия формата : Version 4/Version 2
    Размер файла : 339 Мбайт
    Продолжительность : 12 м. 37 с.
    Режим общего битрейта : Переменный
    Общий поток : 3753 Кбит/сек
    Дата кодирования : UTC 2019-04-26 16: 02: 06
    Программа кодирования : mkvmerge v28.1.0 (\'Morning Child\') 64-bit
    Библиотека кодирования : libebml v1.3.6 + libmatroska v1.4.9
    Видео
    Идентификатор : 1
    Формат : AVC
    Формат/Информация : Advanced Video Codec
    Профиль формата : Main@L3.1
    Настройки формата : CABAC/3 Ref Frames
    Параметр CABAC формата : Да
    Параметр RefFrames формата : 3 кадра
    Идентификатор кодека : V_MPEG4/ISO/AVC
    Продолжительность : 12 м. 37 с.
    Вид битрейта : Переменный
    Битрейт : 1870 Кбит/сек
    Максимальный битрейт : 2805 Кбит/сек
    Ширина : 1280 пикселей
    Высота : 720 пикселей
    Соотношение сторон : 16: 9
    Режим частоты кадров : Постоянный
    Частота кадров : 23, 976 (24000/1001) кадра/сек
    Цветовое пространство : YUV
    Субдискретизация насыщенности : 4: 2: 0
    Битовая глубина : 8 бит
    Тип развёртки : Прогрессивная
    Бит/(Пиксели*Кадры) : 0.085
    Размер потока : 165 Мбайт (49%)
    Библиотека кодирования : x264 core 148 r2715 7e75228
    Настройки программы : cabac=1/ref=3/deblock=1: 0: 0/analyse=0x1: 0x111/me=umh/subme=10/psy=1/psy_rd=1.00: 0.00/mixed_ref=1/me_range=24/chroma_me=1/trellis=2/8x8dct=0/cqm=0/deadzone=21, 11/fast_pskip=1/chroma_qp_offset=-2/threads=8/lookahead_threads=1/sliced_threads=0/nr=0/decimate=1/interlaced=0/bluray_compat=0/stitchable=1/constrained_intra=0/bframes=2/b_pyramid=0/b_adapt=2/b_bias=0/direct=3/weightb=1/open_gop=0/weightp=2/keyint=48/keyint_min=25/scenecut=0/intra_refresh=0/rc_lookahead=48/rc=2pass/mbtree=1/bitrate=1870/ratetol=1.0/qcomp=0.50/qpmin=6/qpmax=51/qpstep=4/cplxblur=20.0/qblur=0.5/vbv_maxrate=2805/vbv_bufsize=3740/nal_hrd=vbr/filler=0/ip_ratio=1.40/aq=1: 1.00
    Default : Да
    Forced : Нет
    Аудио #1
    Идентификатор : 2
    Формат : E-AC-3
    Формат/Информация : Enhanced Audio Coding 3
    Идентификатор кодека : A_EAC3
    Продолжительность : 12 м. 37 с.
    Вид битрейта : Постоянный
    Битрейт : 640 Кбит/сек
    Каналы : 6 каналов
    Расположение каналов : Front: L C R, Side: L R, LFE
    Частота : 48, 0 КГц
    Частота кадров : 187, 500 кадров/сек (256 SPF)
    Метод сжатия : С потерями
    Размер потока : 57, 8 Мбайт (17%)
    Заголовок : NewStation
    Язык : Russian
    ServiceKind/String : Complete Main
    Default : Да
    Forced : Нет
    Аудио #2
    Идентификатор : 3
    Формат : E-AC-3
    Формат/Информация : Enhanced Audio Coding 3
    Идентификатор кодека : A_EAC3
    Продолжительность : 12 м. 37 с.
    Вид битрейта : Постоянный
    Битрейт : 640 Кбит/сек
    Каналы : 6 каналов
    Расположение каналов : Front: L C R, Side: L R, LFE
    Частота : 48, 0 КГц
    Частота кадров : 187, 500 кадров/сек (256 SPF)
    Метод сжатия : С потерями
    Размер потока : 57, 8 Мбайт (17%)
    Заголовок : English
    Язык : English
    ServiceKind/String : Complete Main
    Default : Нет
    Forced : Нет
    Аудио #3
    Идентификатор : 4
    Формат : E-AC-3
    Формат/Информация : Enhanced Audio Coding 3
    Идентификатор кодека : A_EAC3
    Продолжительность : 12 м. 37 с.
    Вид битрейта : Постоянный
    Битрейт : 640 Кбит/сек
    Каналы : 6 каналов
    Расположение каналов : Front: L C R, Side: L R, LFE
    Частота : 48, 0 КГц
    Частота кадров : 187, 500 кадров/сек (256 SPF)
    Метод сжатия : С потерями
    Размер потока : 57, 8 Мбайт (17%)
    Заголовок : Japanese
    Язык : Japanese
    ServiceKind/String : Complete Main
    Default : Нет
    Forced : Нет
    Текст #1
    Идентификатор : 5
    Формат : UTF-8
    Идентификатор кодека : S_TEXT/UTF8
    Идентификатор кодека/Информация : UTF-8 Plain Text
    Продолжительность : 5 м. 26 с.
    Битрейт : 3 бит/сек
    ElementCount : 5
    Размер потока : 136 байт (0%)
    Заголовок : Forced
    Язык : English
    Default : Нет
    Forced : Да
    Текст #2
    Идентификатор : 6
    Формат : UTF-8
    Идентификатор кодека : S_TEXT/UTF8
    Идентификатор кодека/Информация : UTF-8 Plain Text
    Продолжительность : 10 м. 16 с.
    Битрейт : 36 бит/сек
    ElementCount : 92
    Размер потока : 2, 75 Кбайт (0%)
    Язык : English
    Default : Нет
    Forced : Нет
    Текст #3
    Идентификатор : 7
    Формат : UTF-8
    Идентификатор кодека : S_TEXT/UTF8
    Идентификатор кодека/Информация : UTF-8 Plain Text
    Продолжительность : 11 м. 35 с.
    Битрейт : 55 бит/сек
    ElementCount : 94
    Размер потока : 4, 71 Кбайт (0%)
    Язык : Arabic
    Default : Нет
    Forced : Нет
    Текст #4
    Идентификатор : 8
    Формат : UTF-8
    Идентификатор кодека : S_TEXT/UTF8
    Идентификатор кодека/Информация : UTF-8 Plain Text
    Продолжительность : 11 м. 38 с.
    Битрейт : 29 бит/сек
    ElementCount : 82
    Размер потока : 2, 52 Кбайт (0%)
    Язык : Danish
    Default : Нет
    Forced : Нет
    Текст #5
    Идентификатор : 9
    Формат : UTF-8
    Идентификатор кодека : S_TEXT/UTF8
    Идентификатор кодека/Информация : UTF-8 Plain Text
    Продолжительность : 11 м. 35 с.
    Битрейт : 33 бит/сек
    ElementCount : 93
    Размер потока : 2, 84 Кбайт (0%)
    Язык : German
    Default : Нет
    Forced : Нет
    Текст #6
    Идентификатор : 10
    Формат : UTF-8
    Идентификатор кодека : S_TEXT/UTF8
    Идентификатор кодека/Информация : UTF-8 Plain Text
    Продолжительность : 11 м. 35 с.
    Битрейт : 58 бит/сек
    ElementCount : 92
    Размер потока : 4, 96 Кбайт (0%)
    Язык : Greek
    Default : Нет
    Forced : Нет
    Текст #7
    Идентификатор : 11
    Формат : UTF-8
    Идентификатор кодека : S_TEXT/UTF8
    Идентификатор кодека/Информация : UTF-8 Plain Text
    Продолжительность : 11 м. 35 с.
    Битрейт : 31 бит/сек
    ElementCount : 94
    Размер потока : 2, 69 Кбайт (0%)
    Язык : Spanish
    Default : Нет
    Forced : Нет
    Текст #8
    Идентификатор : 12
    Формат : UTF-8
    Идентификатор кодека : S_TEXT/UTF8
    Идентификатор кодека/Информация : UTF-8 Plain Text
    Продолжительность : 11 м. 35 с.
    Битрейт : 32 бит/сек
    ElementCount : 94
    Размер потока : 2, 80 Кбайт (0%)
    Заголовок : European
    Язык : Spanish
    Default : Нет
    Forced : Нет
    Текст #9
    Идентификатор : 13
    Формат : UTF-8
    Идентификатор кодека : S_TEXT/UTF8
    Идентификатор кодека/Информация : UTF-8 Plain Text
    Продолжительность : 11 м. 36 с.
    Битрейт : 31 бит/сек
    ElementCount : 94
    Размер потока : 2, 72 Кбайт (0%)
    Язык : Finnish
    Default : Нет
    Forced : Нет
    Текст #10
    Идентификатор : 14
    Формат : UTF-8
    Идентификатор кодека : S_TEXT/UTF8
    Идентификатор кодека/Информация : UTF-8 Plain Text
    Продолжительность : 11 м. 36 с.
    Битрейт : 35 бит/сек
    ElementCount : 91
    Размер потока : 3, 02 Кбайт (0%)
    Язык : French
    Default : Нет
    Forced : Нет
    Текст #11
    Идентификатор : 15
    Формат : UTF-8
    Идентификатор кодека : S_TEXT/UTF8
    Идентификатор кодека/Информация : UTF-8 Plain Text
    Продолжительность : 11 м. 35 с.
    Битрейт : 45 бит/сек
    ElementCount : 94
    Размер потока : 3, 84 Кбайт (0%)
    Язык : Hebrew
    Default : Нет
    Forced : Нет
    Текст #12
    Идентификатор : 16
    Формат : UTF-8
    Идентификатор кодека : S_TEXT/UTF8
    Идентификатор кодека/Информация : UTF-8 Plain Text
    Продолжительность : 11 м. 35 с.
    Битрейт : 28 бит/сек
    ElementCount : 94
    Размер потока : 2, 41 Кбайт (0%)
    Язык : Indonesian
    Default : Нет
    Forced : Нет
    Текст #13
    Идентификатор : 17
    Формат : UTF-8
    Идентификатор кодека : S_TEXT/UTF8
    Идентификатор кодека/Информация : UTF-8 Plain Text
    Продолжительность : 11 м. 35 с.
    Битрейт : 29 бит/сек
    ElementCount : 89
    Размер потока : 2, 54 Кбайт (0%)
    Язык : Italian
    Default : Нет
    Forced : Нет
    Текст #14
    Идентификатор : 18
    Формат : UTF-8
    Идентификатор кодека : S_TEXT/UTF8
    Идентификатор кодека/Информация : UTF-8 Plain Text
    Продолжительность : 11 м. 40 с.
    Битрейт : 66 бит/сек
    ElementCount : 160
    Размер потока : 5, 66 Кбайт (0%)
    Язык : Japanese
    Default : Нет
    Forced : Нет
    Текст #15
    Идентификатор : 19
    Формат : UTF-8
    Идентификатор кодека : S_TEXT/UTF8
    Идентификатор кодека/Информация : UTF-8 Plain Text
    Продолжительность : 11 м. 40 с.
    Битрейт : 66 бит/сек
    ElementCount : 162
    Размер потока : 5, 69 Кбайт (0%)
    Заголовок : SDH
    Язык : Japanese
    Default : Нет
    Forced : Нет
    Текст #16
    Идентификатор : 20
    Формат : UTF-8
    Идентификатор кодека : S_TEXT/UTF8
    Идентификатор кодека/Информация : UTF-8 Plain Text
    Продолжительность : 11 м. 35 с.
    Битрейт : 36 бит/сек
    ElementCount : 95
    Размер потока : 3, 08 Кбайт (0%)
    Язык : Korean
    Default : Нет
    Forced : Нет
    Текст #17
    Идентификатор : 21
    Формат : UTF-8
    Идентификатор кодека : S_TEXT/UTF8
    Идентификатор кодека/Информация : UTF-8 Plain Text
    Продолжительность : 11 м. 35 с.
    Битрейт : 30 бит/сек
    ElementCount : 87
    Размер потока : 2, 58 Кбайт (0%)
    Язык : Norwegian Bokmal
    Default : Нет
    Forced : Нет
    Текст #18
    Идентификатор : 22
    Формат : UTF-8
    Идентификатор кодека : S_TEXT/UTF8
    Идентификатор кодека/Информация : UTF-8 Plain Text
    Продолжительность : 11 м. 35 с.
    Битрейт : 30 бит/сек
    ElementCount : 86
    Размер потока : 2, 57 Кбайт (0%)
    Язык : Dutch
    Default : Нет
    Forced : Нет
    Текст #19
    Идентификатор : 23
    Формат : UTF-8
    Идентификатор кодека : S_TEXT/UTF8
    Идентификатор кодека/Информация : UTF-8 Plain Text
    Продолжительность : 11 м. 38 с.
    Битрейт : 29 бит/сек
    ElementCount : 86
    Размер потока : 2, 48 Кбайт (0%)
    Язык : Polish
    Default : Нет
    Forced : Нет
    Текст #20
    Идентификатор : 24
    Формат : UTF-8
    Идентификатор кодека : S_TEXT/UTF8
    Идентификатор кодека/Информация : UTF-8 Plain Text
    Продолжительность : 11 м. 38 с.
    Битрейт : 30 бит/сек
    ElementCount : 83
    Размер потока : 2, 61 Кбайт (0%)
    Язык : Portuguese
    Default : Нет
    Forced : Нет
    Текст #21
    Идентификатор : 25
    Формат : UTF-8
    Идентификатор кодека : S_TEXT/UTF8
    Идентификатор кодека/Информация : UTF-8 Plain Text
    Продолжительность : 11 м. 38 с.
    Битрейт : 29 бит/сек
    ElementCount : 94
    Размер потока : 2, 48 Кбайт (0%)
    Заголовок : Brazilian
    Язык : Portuguese
    Default : Нет
    Forced : Нет
    Текст #22
    Идентификатор : 26
    Формат : UTF-8
    Идентификатор кодека : S_TEXT/UTF8
    Идентификатор кодека/Информация : UTF-8 Plain Text
    Продолжительность : 11 м. 34 с.
    Битрейт : 35 бит/сек
    ElementCount : 89
    Размер потока : 2, 98 Кбайт (0%)
    Язык : Romanian
    Default : Нет
    Forced : Нет
    Текст #23
    Идентификатор : 27
    Формат : UTF-8
    Идентификатор кодека : S_TEXT/UTF8
    Идентификатор кодека/Информация : UTF-8 Plain Text
    Продолжительность : 11 м. 35 с.
    Битрейт : 57 бит/сек
    ElementCount : 94
    Размер потока : 4, 88 Кбайт (0%)
    Язык : Russian
    Default : Нет
    Forced : Нет
    Текст #24
    Идентификатор : 28
    Формат : UTF-8
    Идентификатор кодека : S_TEXT/UTF8
    Идентификатор кодека/Информация : UTF-8 Plain Text
    Продолжительность : 11 м. 35 с.
    Битрейт : 30 бит/сек
    ElementCount : 84
    Размер потока : 2, 62 Кбайт (0%)
    Язык : Swedish
    Default : Нет
    Forced : Нет
    Текст #25
    Идентификатор : 29
    Формат : UTF-8
    Идентификатор кодека : S_TEXT/UTF8
    Идентификатор кодека/Информация : UTF-8 Plain Text
    Продолжительность : 11 м. 35 с.
    Битрейт : 84 бит/сек
    ElementCount : 94
    Размер потока : 7, 14 Кбайт (0%)
    Язык : Thai
    Default : Нет
    Forced : Нет
    Текст #26
    Идентификатор : 30
    Формат : UTF-8
    Идентификатор кодека : S_TEXT/UTF8
    Идентификатор кодека/Информация : UTF-8 Plain Text
    Продолжительность : 11 м. 35 с.
    Битрейт : 37 бит/сек
    ElementCount : 94
    Размер потока : 3, 14 Кбайт (0%)
    Язык : Turkish
    Default : Нет
    Forced : Нет
    Текст #27
    Идентификатор : 31
    Формат : UTF-8
    Идентификатор кодека : S_TEXT/UTF8
    Идентификатор кодека/Информация : UTF-8 Plain Text
    Продолжительность : 11 м. 35 с.
    Битрейт : 32 бит/сек
    ElementCount : 94
    Размер потока : 2, 73 Кбайт (0%)
    Заголовок : Simplified
    Язык : Chinese
    Default : Нет
    Forced : Нет
    Текст #28
    Идентификатор : 32
    Формат : UTF-8
    Идентификатор кодека : S_TEXT/UTF8
    Идентификатор кодека/Информация : UTF-8 Plain Text
    Продолжительность : 11 м. 35 с.
    Битрейт : 32 бит/сек
    ElementCount : 94
    Размер потока : 2, 75 Кбайт (0%)
    Заголовок : Traditional
    Язык : Chinese
    Default : Нет
    Forced : Нет

    Скриншоты для ознакомления



    Все одноименные релизы в Клубе
    Время раздачи: 24/7 (круглосуточно) (до появления первых 3-5 скачавших)


    Онлайн видео Рилаккума и Каору



    Рилаккума и Каору/Rilakkuma and Kaoru (2019) WEB-DL [H.264/720p-LQ] (сезон 1, серии 1-13 из 13) NewStation
    Рейтинг →
     (голосов: 1, оценка 5/5, голосовать можно 1 раз )

    Другие торренты по теме:

  • Рилаккума и Каору / Rilakkuma and Kaoru (2019) WEB-DL [H.264 / 1080p-LQ] (сезон 1, серии 1-13 из 13) NewStation
  • Рилаккума и Каору / Rilakkuma and Kaoru (2019) WEBRip (сезон 1, серии 1-13 из 13) NewStation


    • Комментарии (0):

      Информация

      Информация

        Посетители, находящиеся в группе Гости, не могут оставлять комментарии в данной новости.

        ↓ Меню




        ↓ Опрос

        Вы добавили сайт в закладки?
        Да
        Нет


        Top 10 за месяц (Мультфильмы)