.
Авторизация | Регистрация

Торрент скачать бесплатно

  • support: webmaster@btracker.club
» » Лего Скуби-Ду! Улетный Пляж / Lego Scooby-Doo! Blowout Beach Bash (2017) BDRemux [H.264 / 1080p] (MVO) торрент скачать бесплатно


    Лего Скуби-Ду! Улетный Пляж / Lego Scooby-Doo! Blowout Beach Bash (2017) BDRemux [H.264 / 1080p] (MVO) торрент скачать бесплатно

    Дата: 28-04-2019, 05:00 | .torrent скачали: 1

    Лего Скуби-Ду! Улетный Пляж / Lego Scooby-Doo! Blowout Beach Bash (2017) BDRemux [H.264 / 1080p] (MVO)Производство: США, LEGO Group
    Жанр: мультфильм, ужасы, фэнтези, комедия, детектив, семейный
    Режиссер: Этан Сполдинг

    Актеры
    Фрэнк Уэлкер, Грэй Гриффин, Мэттью Лиллард, Кейт Микуччи, Джефф Беннетт, Кейт Хиггинс, Джошуа Китон, Том Кенни, Натали Ландер, Джек МакБрайер

    Описание

    После раскрытия очередного дела команда детективов отправляется отдохнуть на Улётном пляже, где должно состояться состязание по отрыву. Прибыв в отель, они узнают, что на пляж напали духи пиратов Улёта и Пляжа, основателей Улётного пляжа, и похитили пиратские шляпы, которыми награждались победители состязаний. Фреду Джонсу и Велме Динкли предстоит доказать своим друзьям, что они умеют отрываться по полной программе, а команде детективов — спасти пляж и вывести на чистую воду мошенников, скрывающихся под личинами пиратов.

    Дата мировой премьеры: 25 июля 2017
    Релиз от: Shellters-bob, РГ Мультфильмы
    Продолжительность: 01: 16: 57
    Качество видео: BDRemux
    Перевод: Многоголосый закадровый, любительский (Колобок)
    Субтитры: русские, английские
    Видео: AVC/H.264, 1920x1080 , 23.976 fps, 14.9 Mbps
    Аудио #1: AC-3, 2 ch, 192 Kbps, CBR - Русский MVO (Колобок)
    Аудио #2: DTS MA, 6 ch, 2310 Kbps (DTS Core: 6 ch, 1 510 Kbps) - Английский (оригинал)
    Общее
    Уникальный идентификатор : 190499412448195291284343489367697091171 (0x8F50DA2F2AD20BE580E973F0F7856A63)
    Полное имя : G: Lego Scooby Doo Blowout Beach Bash 2017 Remux 1080p.mkv
    Формат : Matroska
    Версия формата : Version 4/Version 2
    Размер файла : 9, 37 Гбайт
    Продолжительность : 1 ч. 16 м.
    Режим общего битрейта : Переменный
    Общий поток : 17, 4 Мбит/сек
    Дата кодирования : UTC 2017-07-25 11: 15: 10
    Программа кодирования : mkvmerge v8.8.0 (\'Wind at my back\') 64bit
    Библиотека кодирования : libebml v1.3.3 + libmatroska v1.4.4
    Видео
    Идентификатор : 1
    Формат : AVC
    Формат/Информация : Advanced Video Codec
    Профиль формата : High@L4.1
    Параметр CABAC формата : Да
    Параметр ReFrames формата : 4 кадра
    Идентификатор кодека : V_MPEG4/ISO/AVC
    Продолжительность : 1 ч. 16 м.
    Вид битрейта : Переменный
    Битрейт : 14, 9 Мбит/сек
    Максимальный битрейт : 30, 0 Мбит/сек
    Ширина : 1920 пикселей
    Высота : 1080 пикселей
    Соотношение сторон : 16: 9
    Режим частоты кадров : Постоянный
    Частота кадров : 23, 976 (24000/1001) кадра/сек
    Цветовое пространство : YUV
    Субдискретизация насыщенности : 4: 2: 0
    Битовая глубина : 8 бит
    Тип развёртки : Прогрессивная
    Бит/(Пиксели*Кадры) : 0.300
    Размер потока : 8, 02 Гбайт (86%)
    Язык : English
    Default : Нет
    Forced : Нет
    Аудио #1
    Идентификатор : 2
    Формат : AC-3
    Формат/Информация : Audio Coding 3
    Расширение режима : CM (complete main)
    Параметр Endianness формата : Big
    Идентификатор кодека : A_AC3
    Продолжительность : 1 ч. 16 м.
    Вид битрейта : Постоянный
    Битрейт : 192 Кбит/сек
    Каналы : 2 канала
    Расположение каналов : Front: L R
    Частота : 48, 0 КГц
    Частота кадров : 31, 250 кадров/сек (1536 spf)
    Битовая глубина : 16 бит
    Метод сжатия : С потерями
    Размер потока : 106 Мбайт (1%)
    Язык : Russian
    Default : Да
    Forced : Нет
    Аудио #2
    Идентификатор : 3
    Формат : DTS
    Формат/Информация : Digital Theater Systems
    Профиль формата : MA/Core
    Режим : 16
    Параметр Endianness формата : Big
    Идентификатор кодека : A_DTS
    Продолжительность : 1 ч. 16 м.
    Вид битрейта : Переменный/Постоянный
    Битрейт : 2309 Кбит/сек/1509 Кбит/сек
    Каналы : 6 каналов
    Расположение каналов : Front: L C R, Side: L R, LFE
    Частота : 48, 0 КГц
    Частота кадров : 93, 750 кадра/сек (512 spf)
    Битовая глубина : 16 бит
    Метод сжатия : Без потерь/Lossy
    Размер потока : 1, 24 Гбайт (13%)
    Язык : English
    Default : Нет
    Forced : Нет
    Текст #1
    Идентификатор : 4
    Формат : UTF-8
    Идентификатор кодека : S_TEXT/UTF8
    Идентификатор кодека/Информация : UTF-8 Plain Text
    Продолжительность : 1 ч. 16 м.
    Битрейт : 142 бит/сек
    Count of elements : 1367
    Размер потока : 79, 8 Кбайт (0%)
    Заголовок : by yaroslav230596
    Язык : Russian
    Default : Нет
    Forced : Нет
    Текст #2
    Идентификатор : 5
    Формат : UTF-8
    Идентификатор кодека : S_TEXT/UTF8
    Идентификатор кодека/Информация : UTF-8 Plain Text
    Продолжительность : 1 ч. 16 м.
    Битрейт : 87 бит/сек
    Count of elements : 1385
    Размер потока : 48, 8 Кбайт (0%)
    Язык : English
    Default : Нет
    Forced : Нет
    Текст #3
    Идентификатор : 6
    Формат : UTF-8
    Идентификатор кодека : S_TEXT/UTF8
    Идентификатор кодека/Информация : UTF-8 Plain Text
    Продолжительность : 1 ч. 16 м.
    Битрейт : 92 бит/сек
    Count of elements : 1547
    Размер потока : 51, 7 Кбайт (0%)
    Заголовок : SDH
    Язык : English
    Default : Нет
    Forced : Нет
    Меню
    00: 00: 00.000 : en: Chapter 01
    00: 13: 15.085 : en: Chapter 02
    00: 22: 04.072 : en: Chapter 03
    00: 32: 03.504 : en: Chapter 04
    00: 41: 51.926 : en: Chapter 05
    00: 53: 10.103 : en: Chapter 06
    01: 02: 26.409 : en: Chapter 07
    01: 13: 19.436 : en: Chapter 08


    Онлайн видео Лего Скуби-Ду! Улетный Пляж



    Лего Скуби-Ду! Улетный Пляж/Lego Scooby-Doo! Blowout Beach Bash (2017) BDRemux [H.264/1080p] (MVO)
    Рейтинг →
     (голосов: 1, оценка 5/5, голосовать можно 1 раз )

    Другие торренты по теме:

  • Лего Скуби-Ду! Улетный Пляж / Lego Scooby-Doo! Blowout Beach Bash (2017) WEB-DL [H.264 / 720p-LQ] [EN]


    • Комментарии (0):

      Информация

      Информация

        Посетители, находящиеся в группе Гости, не могут оставлять комментарии в данной новости.

        ↓ Меню




        ↓ Опрос

        Вы добавили сайт в закладки?
        Да
        Нет


        Top 10 за месяц (Мультфильмы)