.
Авторизация | Регистрация

Торрент скачать бесплатно

  • support: webmaster@btracker.club
» » Гэри и его демоны / Gary and His Demons (2018) WEBRip [H.264 / 1080p-LQ] (сезон 1, серии 1-16 из 16) NewStation торрент скачать бесплатно


    Гэри и его демоны / Gary and His Demons (2018) WEBRip [H.264 / 1080p-LQ] (сезон 1, серии 1-16 из 16) NewStation торрент скачать бесплатно

    Дата: 27-04-2019, 05:00 | .torrent скачали: 0

    Гэри и его демоны / Gary and His Demons (2018) WEBRip [H.264 / 1080p-LQ] (сезон 1, серии 1-16 из 16) NewStationПроизводство: Канада, Mondo Media
    Жанр: Для взрослых, ужасы, фэнтези, боевик, драма, комедия

    Описание

    Гэри — ветеран правительственного департамента по отлову и уничтожению демонов, который был создан после масштабного вторжения сил зла в наш мир. В войне с силами Ада он потерял много друзей и любимую, но приобрёл стальной цинизм, язвительное чувство юмора и желание уйти на пенсию. Но вот беда, ему до сих пор не нашли замену. И снова ему одному приходится тянуть лямку борьбы за освобождение мира от демонической нечисти.

    Релиз от: NewStation
    Продолжительность: ~00: 11: 00 серия
    Качество видео: WEBRip
    Перевод: Многоголосый закадровый, любительский (NewStation) (присутствует ненормативная лексика!)
    Субтитры: Русские (J-sUn)
    Видео: AVC/H.264, 1920х1080, ~4314 Kbps
    Аудио #1: AC3, 2 ch, 256 kbps, - Русский (NewStation)
    Аудио #2: AAC, 2 ch, 128 kbps, - Английский

    Общее
    Уникальный идентификатор : 258533167019353642036302718015695306121 (0xC27FAD42A1F7285EE34519DC40F13D89)
    Полное имя : F: NewStationGary.and.His.Demons.S01.WEBRip.1080p.NewStationGary.and.His.Demons.S01E16.WEBRip.1080p.NewStation.mkv
    Формат : Matroska
    Версия формата : Version 4/Version 2
    Размер файла : 416 Мбайт
    Продолжительность : 12 м. 23 с.
    Общий поток : 4700 Кбит/сек
    Дата кодирования : UTC 2019-04-25 21: 23: 58
    Программа кодирования : mkvmerge v28.1.0 (\'Morning Child\') 64-bit
    Библиотека кодирования : libebml v1.3.6 + libmatroska v1.4.9
    Видео
    Идентификатор : 1
    Формат : AVC
    Формат/Информация : Advanced Video Codec
    Профиль формата : High@L4
    Настройки формата : CABAC/4 Ref Frames
    Параметр CABAC формата : Да
    Параметр RefFrames формата : 4 кадра
    Идентификатор кодека : V_MPEG4/ISO/AVC
    Продолжительность : 12 м. 23 с.
    Битрейт : 4314 Кбит/сек
    Ширина : 1920 пикселей
    Высота : 1080 пикселей
    Соотношение сторон : 16: 9
    Режим частоты кадров : Постоянный
    Частота кадров : 24, 000 кадра/сек
    Цветовое пространство : YUV
    Субдискретизация насыщенности : 4: 2: 0
    Битовая глубина : 8 бит
    Тип развёртки : Прогрессивная
    Бит/(Пиксели*Кадры) : 0.087
    Размер потока : 382 Мбайт (92%)
    Библиотека кодирования : x264 core 142
    Настройки программы : cabac=1/ref=4/deblock=1: 1: 1/analyse=0x3: 0x113/me=umh/subme=8/psy=1/psy_rd=0.40: 0.00/mixed_ref=1/me_range=16/chroma_me=1/trellis=1/8x8dct=1/cqm=0/deadzone=21, 11/fast_pskip=1/chroma_qp_offset=-2/threads=12/lookahead_threads=2/sliced_threads=0/nr=0/decimate=1/interlaced=0/bluray_compat=0/constrained_intra=0/bframes=3/b_pyramid=2/b_adapt=2/b_bias=0/direct=3/weightb=1/open_gop=0/weightp=2/keyint=48/keyint_min=24/scenecut=40/intra_refresh=0/rc_lookahead=48/rc=crf/mbtree=1/crf=15.0/qcomp=0.60/qpmin=0/qpmax=69/qpstep=4/vbv_maxrate=8000/vbv_bufsize=12000/crf_max=0.0/nal_hrd=none/filler=0/ip_ratio=1.40/aq=1: 0.60
    Язык : English
    Default : Да
    Forced : Нет
    Аудио #1
    Идентификатор : 2
    Формат : AC-3
    Формат/Информация : Audio Coding 3
    Идентификатор кодека : A_AC3
    Продолжительность : 12 м. 23 с.
    Вид битрейта : Постоянный
    Битрейт : 256 Кбит/сек
    Каналы : 2 канала
    Расположение каналов : Front: L R
    Частота : 48, 0 КГц
    Частота кадров : 31, 250 кадров/сек (1536 SPF)
    Битовая глубина : 16 бит
    Метод сжатия : С потерями
    Задержка видео : -83 мс.
    Размер потока : 22, 7 Мбайт (5%)
    Заголовок : NewStation
    Язык : Russian
    ServiceKind/String : Complete Main
    Default : Да
    Forced : Нет
    Аудио #2
    Идентификатор : 3
    Формат : AAC
    Формат/Информация : Advanced Audio Codec
    Профиль формата : LC
    Идентификатор кодека : A_AAC-2
    Продолжительность : 12 м. 23 с.
    Битрейт : 128 Кбит/сек
    Каналы : 2 канала
    Расположение каналов : Front: L R
    Частота : 44, 1 КГц
    Частота кадров : 43, 066 кадра/сек (1024 SPF)
    Метод сжатия : С потерями
    Задержка видео : -83 мс.
    Размер потока : 11, 3 Мбайт (3%)
    Заголовок : Original
    Default : Нет
    Forced : Нет
    Текст
    Идентификатор : 4
    Формат : ASS
    Идентификатор кодека : S_TEXT/ASS
    Идентификатор кодека/Информация : Advanced Sub Station Alpha
    Продолжительность : 12 м. 12 с.
    Битрейт : 236 бит/сек
    ElementCount : 272
    Метод сжатия : Без потерь
    Размер потока : 21, 1 Кбайт (0%)
    Заголовок : J-sUn
    Язык : Russian
    Default : Нет
    Forced : Нет


    Онлайн видео Гэри и его демоны



    Гэри и его демоны/Gary and His Demons (2018) WEBRip [H.264/1080p-LQ] (сезон 1, серии 1-16 из 16) NewStation
    Рейтинг →
     (голосов: 1, оценка 3/5, голосовать можно 1 раз )

    Другие торренты по теме:

  • Гэри Чепмен | Собрание сочинений [10 книг] (2001-2014) [PDF, DJVU] скачать через торрент бесплатно
  • Гэри Томас | Священный брак (2012) [DJVU]
  • Гэри Келлер, Джей Папазан | В фокусе. Твой путь к выдающимся результатам (2016) [EPUB, FB2, MOBI]
  • Гэри Крист | Джаз. Великая история империи греха и порока (2017) [FB2]
  • Гэри Уилсон - Великий порно-эксперимент / Gary Wilson - The great porn experiment (2015) SATRip [H.264] [MP4|1280x720]
  • Гэри Рорбахер, Энн Фильсон | Дизайн для ЧПУ: Практические технологии, проекты и советы по изготовлению мебели с ЧПУ (2017) [EPUB] [En]
  • Гэри Ван Хаас | Создатели (2017) [FB2]
  • Гэри Чепмен | Пять путей к сердцу подростка (2015) [MP3]


    • Комментарии (0):

      Информация

      Информация

        Посетители, находящиеся в группе Гости, не могут оставлять комментарии в данной новости.

        ↓ Меню




        ↓ Опрос

        Вы добавили сайт в закладки?
        Да
        Нет


        Top 10 за месяц (Мультфильмы)