.
Авторизация | Регистрация

Торрент скачать бесплатно

  • support: webmaster@btracker.club
» » Маша и Медведь: Кем Быть (2019) WEB-DL [H.264 / 1080p-LQ] (Серия 78) торрент скачать бесплатно


    Маша и Медведь: Кем Быть (2019) WEB-DL [H.264 / 1080p-LQ] (Серия 78) торрент скачать бесплатно

    Дата: 27-04-2019, 05:00 | .torrent скачали: 1

    Маша и Медведь: Кем Быть (2019) WEB-DL [H.264 / 1080p-LQ] (Серия 78)Производство: Россия/Студия Анимаккорд
    Жанр: Детский, комедия, семейный
    Режиссер: Олег Кузовков, Олег Ужинов, Денис Червяцов

    Описание

    Кем быть, когда вырастешь? Поиск ответа на этот вопрос - один из самых сложных процессов для каждого ребёнка. Маша не исключение. Мишка же убеждает её, что в любой ситуации главное - оставаться собой.

    Возраст: 0+ (для любой зрительской аудитории)
    Релиз от: Aлexandr
    Продолжительность: 00: 07: 17
    Качество видео: WEB-DL
    Субтитры: Отсутствуют
    Видео: AVC/H.264, 1920x1080 (16: 9), ~1905 Kbps
    Аудио: AC3, 2 ch, 192 Kbps

    Общее
    Уникальный идентификатор : 91697154959894447068592230936317789101 (0x44FC3ACAAF87637A11F88CF41E2803AD)
    Полное имя : G: Маша и Медведь (Серия 78).mkv
    Формат : Matroska
    Версия формата : Version 4
    Размер файла : 111 Мбайт
    Продолжительность : 7 м. 17 с.
    Общий поток : 2138 Кбит/сек
    Программа кодирования : Lavf57.71.100
    Библиотека кодирования : Lavf57.71.100
    ErrorDetectionType : Per level 1
    Видео
    Идентификатор : 1
    Формат : AVC
    Формат/Информация : Advanced Video Codec
    Профиль формата : High@L4
    Настройки формата : CABAC/3 Ref Frames
    Параметр CABAC формата : Да
    Параметр RefFrames формата : 3 кадра
    Идентификатор кодека : V_MPEG4/ISO/AVC
    Продолжительность : 7 м. 17 с.
    Битрейт : 1904 Кбит/сек
    Ширина : 1920 пикселей
    Высота : 1080 пикселей
    Соотношение сторон : 16: 9
    Режим частоты кадров : Постоянный
    Частота кадров : 25, 000 кадров/сек
    Цветовое пространство : YUV
    Субдискретизация насыщенности : 4: 2: 0
    Битовая глубина : 8 бит
    Тип развёртки : Прогрессивная
    Бит/(Пиксели*Кадры) : 0.037
    Размер потока : 99, 2 Мбайт (89%)
    Библиотека кодирования : x264 core 155 r2901 7d0ff22
    Default : Да
    Forced : Нет
    Цветовой диапазон : Limited
    Основные цвета : BT.709
    Характеристики трансфера : BT.709
    Коэффициенты матрицы : BT.709
    Аудио
    Идентификатор : 2
    Формат : AC-3
    Формат/Информация : Audio Coding 3
    Коммерческое название : Dolby Digital
    Идентификатор кодека : A_AC3
    Продолжительность : 7 м. 17 с.
    Вид битрейта : Постоянный
    Битрейт : 192 Кбит/сек
    Каналы : 2 канала
    ChannelLayout : L R
    Частота : 48, 0 КГц
    Частота кадров : 31, 250 кадров/сек (1536 SPF)
    Битовая глубина : 16 бит
    Метод сжатия : С потерями
    Размер потока : 10, 0 Мбайт (9%)
    ServiceKind/String : Complete Main
    Default : Да
    Forced : Нет

    Скриншоты для ознакомления



    Все одноименные релизы в Клубе
    Время раздачи: 24/7 (круглосуточно) (до появления первых 3-5 скачавших)


    Онлайн видео Маша и Медведь: Кем Быть (2019) WEB-DL [H.264



    Маша и Медведь: Кем Быть (2019) WEB-DL [H.264/1080p-LQ] (Серия 78)
    Рейтинг →
     (голосов: 1, оценка 4/5, голосовать можно 1 раз )

    Другие торренты по теме:

  • Маша и Медведь: Пещерный медведь (2015) WEBRip (Серия 48)
  • Маша и Медведь: Пещерный медведь (2015) WEB-DL [H.264 / 1080p-LQ] (Серия 48) скачать через торрент бесплатно
  • Маша и Медведь: Пещерный медведь (2015) WEB-DL (Серия 48) [H.264 / 720p-LQ]
  • Маша и медведь (2009-2014) BDRip [1080p] (1-45 серии) [Обновляемый]
  • Маша и медведь (1-45 серии) (2009-2014) [1080p] BDRemux [Обновляемый]
  • Маша и Медведь (1-45 серии) (2009-2014) [H.264] BDRip [Обновляемая]
  • Маша и Медведь (2009-2013) DVDRip / HDRip (1-45 серии) + Машины сказки (2011-2013) DVDRip (1-26 серии) [Оновляемая]
  • Маша и Медведь: Запутанная история (2014) BDRemux [1080p] (Серия 45)


    • Комментарии (0):

      Информация

      Информация

        Посетители, находящиеся в группе Гости, не могут оставлять комментарии в данной новости.

        ↓ Меню




        ↓ Опрос

        Вы добавили сайт в закладки?
        Да
        Нет


        Top 10 за месяц (Мультфильмы)