.
Авторизация | Регистрация

Торрент скачать бесплатно

  • support: webmaster@btracker.club
» » ЛЕГО Фильм 2 / The Lego Movie 2: The Second Part (2019) HDRip торрент скачать бесплатно


    ЛЕГО Фильм 2 / The Lego Movie 2: The Second Part (2019) HDRip торрент скачать бесплатно

    Дата: 24-04-2019, 05:00 | .torrent скачали: 0

    ЛЕГО Фильм 2 / The Lego Movie 2: The Second Part (2019) HDRipПроизводство: Дания, Норвегия, Австралия, США/Warner Bros., Warner Animation Group, LEGO System A/S
    Жанр: мультфильм, мюзикл, фэнтези, боевик, комедия, приключения, семейный
    Режиссер: Майк Митчелл

    Описание

    Прошло пять лет с тех пор, как все было прекрасно, и теперь жители пластмассового мира столкнулись с новой невероятной угрозой — вторженцами LEGO DUPLO®, прибывшими из космоса и разрушающими всё на своем пути куда быстрее, чем герои могут построить вновь. В результате жёлтым человечкам приходится жить в мрачной постапокалиптике, но Эммет этого не замечает и продолжает радоваться жизни. Однажды появляется неуязвимый корабль-разведчик и утаскивает с собой выдающихся, по его мнению, героев — Люсю в том числе. Чтобы спасти друзей и восстановить гармонию во вселенной ЛЕГО, Эммет отправляется в необыкновенную галактику, где правит постоянно меняющая форму Королева, и всегда царит музыка.

    Возраст: 6+ (зрителям, достигшим 6 лет)
    Рейтинг MPAA: PG (рекомендуется присутствие родителей)
    Дата мировой премьеры: 6 февраля 2019, ...
    Дата российской премьеры: 7 февраля 2019, Каро-Премьер 3D
    Релиз от: Kinozal
    Продолжительность: 01: 47: 05
    Качество видео: HDRip
    Перевод: Дублированный (iTunes)
    Субтитры: Русские (форс., полные), Английские (полные) - все отдельными файлами
    Видео: Xvid, 720x304, 2073 Kbps
    Аудио: AC3, 6 ch, 384 Kbps - Русский DUB
    Аудио: AC3, 6 ch, 384 Kbps - Английский
    General
    Complete name : Lego.Film.2.2019.HDRip..Kinozal-Reliz.avi
    Format : AVI
    Format/Info : Audio Video Interleave
    Format profile : OpenDML
    File size : 2.14 GiB
    Duration : 1 h 47 min
    Overall bit rate : 2 858 kb/s
    Writing application : VirtualDubModRus 1.5.10.2 (build 2542/release)
    Writing library : VirtualDubMod build 2542/release
    Video
    ID : 0
    Format : MPEG-4 Visual
    Format profile : Advanced Simple@L5
    Format settings : BVOP2/Custom Matrix
    Format settings, BVOP : 2
    Format settings, QPel : No
    Format settings, GMC : No warppoints
    Format settings, Matrix : Custom
    Codec ID : XVID
    Codec ID/Hint : XviD
    Duration : 1 h 47 min
    Bit rate : 2 073 kb/s
    Width : 720 pixels
    Height : 304 pixels
    Display aspect ratio : 2.35: 1
    Frame rate : 23.976 (24000/1001) FPS
    Color space : YUV
    Chroma subsampling : 4: 2: 0
    Bit depth : 8 bits
    Scan type : Progressive
    Compression mode : Lossy
    Bits/(Pixel*Frame) : 0.395
    Stream size : 1.55 GiB (73%)
    Writing library : XviD 73
    Audio #1
    ID : 1
    Format : AC-3
    Format/Info : Audio Coding 3
    Commercial name : Dolby Digital
    Codec ID : 2000
    Duration : 1 h 47 min
    Bit rate mode : Constant
    Bit rate : 384 kb/s
    Channel(s) : 6 channels
    Channel layout : L R C LFE Ls Rs
    Sampling rate : 48.0 kHz
    Frame rate : 31.250 FPS (1536 SPF)
    Bit depth : 16 bits
    Compression mode : Lossy
    Stream size : 294 MiB (13%)
    Alignment : Split accross interleaves
    Interleave, duration : 42 ms (1.00 video frame)
    Interleave, preload duration : 500 ms
    Service kind : Complete Main
    Audio #2
    ID : 2
    Format : AC-3
    Format/Info : Audio Coding 3
    Commercial name : Dolby Digital
    Codec ID : 2000
    Duration : 1 h 47 min
    Bit rate mode : Constant
    Bit rate : 384 kb/s
    Channel(s) : 6 channels
    Channel layout : L R C LFE Ls Rs
    Sampling rate : 48.0 kHz
    Frame rate : 31.250 FPS (1536 SPF)
    Bit depth : 16 bits
    Compression mode : Lossy
    Stream size : 294 MiB (13%)
    Alignment : Split accross interleaves
    Interleave, duration : 42 ms (1.00 video frame)
    Interleave, preload duration : 500 ms
    Service kind : Complete Main

    Скриншоты для ознакомления



    Все одноименные релизы в Клубе
    Время раздачи: 24/7 (мультитрекер) (до появления первых 3-5 скачавших)


    Онлайн видео ЛЕГО Фильм 2



    ЛЕГО Фильм 2/The Lego Movie 2: The Second Part (2019) HDRip
    Рейтинг →
     (голосов: 1, оценка 4/5, голосовать можно 1 раз )

    Другие торренты по теме:

  • Лего Фильм: Бэтмен / The Lego Batman Movie (2017) DCPRip [2K] [Hi10P, Hi444PP] [Трейлер]
  • Лего фильм: Бэтмен / The LEGO Batman Movie (2017) CamRip
  • VA, Lorne Balfe - The LEGO Batman Movie / Лего Фильм: Бэтмен (Original Motion Picture Soundtrack) (2017) [FLAC|Lossless|WEB-DL|tracks]<Soundtrack, Score>
  • VA, Lorne Balfe - The LEGO Batman Movie / Лего Фильм: Бэтмен (Original Motion Picture Soundtrack) (2017) [MP3|320 кб / с]<Soundtrack, Score>
  • Лего Фильм: Бэтмен / The LEGO Batman Movie (2017) TS
  • Лего Фильм: Бэтмен / The LEGO Batman Movie (2017) WEB-DL [H.264 / 1080p-LQ] [EN / RU, EN Sub]
  • Лего Фильм: Бэтмен / The LEGO Batman Movie (2017) WEB-DLRip
  • Лего Фильм: Бэтмен / The LEGO Batman Movie (2017) WEB-DLRip [H.264]


    • Комментарии (0):

      Информация

      Информация

        Посетители, находящиеся в группе Гости, не могут оставлять комментарии в данной новости.

        ↓ Меню




        ↓ Опрос

        Вы добавили сайт в закладки?
        Да
        Нет


        Top 10 за месяц (Мультфильмы)