.
Авторизация | Регистрация

Торрент скачать бесплатно

  • support: webmaster@btracker.club
» » Рождённый стать королём / The Kid Who Would Be King (2019) BDRip [H.264] торрент скачать бесплатно


    Рождённый стать королём / The Kid Who Would Be King (2019) BDRip [H.264] торрент скачать бесплатно

    Дата: 22-04-2019, 05:00 | .torrent скачали: 2

    Рождённый стать королём / The Kid Who Would Be King (2019) BDRip [H.264]Производство: Великобритания, США
    Жанр: Фэнтези, боевик, приключения, семейный
    Режиссер: Джо Корниш

    Актеры
    Луис Эшборн Серкис, Денис Гоф, Дин Чаму, Том Тейлор, Рианна Доррис, Нэйтан Стюарт-Джарретт, Нома Думезвени, Ребекка Фергюсон (II), Марк Боннар, Энгус Имри

    Описание

    Повседневные проблемы 12-летнего Алекса отходят на второй план после того, как он находит легендарный Экскалибур. И теперь, когда меч короля Артура оказывается в руках самого неудачливого подростка в Британии, начинается грандиозное приключение, в ходе которого Алекс и его друзья должны остановить злую средневековую волшебницу Моргану и не дать ей уничтожить мир.

    Возраст: 6+ (зрителям, достигшим 6 лет)
    Рейтинг MPAA: PG (рекомендуется присутствие родителей)
    Дата мировой премьеры: 6 января 2019
    Дата российской премьеры: 14 марта 2019, Двадцатый Век Фокс СНГ
    Цифровой релиз: 19 апреля 2019, Двадцатый Век Фокс СНГ
    Продолжительность: 02: 00: 08
    Качество видео: BDRip
    Перевод: Дублированный (iTunes)
    Субтитры: Русские (Forced, full), английские (полные и для слабослышащих)
    Видео: AVC/H.264, 1024x428, ~2600 Kbps
    Аудио 1: AC3, 6 ch, 384 Kbps - Русский
    Аудио 2: AC3, 6 ch, 448 Kbps - Английский

    General
    Unique ID : 194765506539314293935396936787780991612 (0x928678DCB5FEB70698F0954067547A7C)
    Complete name : E: ЗагрузкиKid.King.2019.BDRip-AVC.mkv
    Format : Matroska
    Format version : Version 2
    File size : 2.88 GiB
    Duration : 2 h 0 min
    Overall bit rate : 3 431 kb/s
    Encoded date : UTC 2019-04-19 16: 05: 51
    Writing application : mkvmerge v7.8.0 (\'River Man\') 32bit built on Apr 3 2015 12: 11: 22
    Writing library : libebml v1.3.1 + libmatroska v1.4.2
    Video
    ID : 1
    Format : AVC
    Format/Info : Advanced Video Codec
    Format profile : High@L4.1
    Format settings : CABAC/12 Ref Frames
    Format settings, CABAC : Yes
    Format settings, ReFrames : 12 frames
    Codec ID : V_MPEG4/ISO/AVC
    Duration : 2 h 0 min
    Bit rate : 2 600 kb/s
    Width : 1 024 pixels
    Height : 428 pixels
    Display aspect ratio : 2.40: 1
    Frame rate mode : Constant
    Frame rate : 23.976 (24000/1001) FPS
    Color space : YUV
    Chroma subsampling : 4: 2: 0
    Bit depth : 8 bits
    Scan type : Progressive
    Bits/(Pixel*Frame) : 0.247
    Stream size : 2.12 GiB (74%)
    Writing library : x264 core 152 r2851 ba24899
    Encoding settings : cabac=1/ref=12/deblock=1: -3: -2/analyse=0x3: 0x113/me=umh/subme=10/psy=1/psy_rd=1.00: 0.10/mixed_ref=1/me_range=32/chroma_me=1/trellis=2/8x8dct=1/cqm=0/deadzone=21, 11/fast_pskip=0/chroma_qp_offset=-3/threads=6/lookahead_threads=1/sliced_threads=0/nr=0/decimate=0/interlaced=0/bluray_compat=0/constrained_intra=0/bframes=12/b_pyramid=2/b_adapt=2/b_bias=0/direct=3/weightb=1/open_gop=0/weightp=2/keyint=240/keyint_min=23/scenecut=40/intra_refresh=0/rc=2pass/mbtree=0/bitrate=2600/ratetol=1.0/qcomp=0.60/qpmin=0/qpmax=69/qpstep=4/cplxblur=20.0/qblur=0.5/ip_ratio=1.40/pb_ratio=1.30/aq=3: 1.00
    Language : English
    Default : Yes
    Forced : No
    Color range : Limited
    Color primaries : BT.709
    Transfer characteristics : BT.709
    Matrix coefficients : BT.709
    Audio #1
    ID : 2
    Format : AC-3
    Format/Info : Audio Coding 3
    Commercial name : Dolby Digital
    Codec ID : A_AC3
    Duration : 2 h 0 min
    Bit rate mode : Constant
    Bit rate : 384 kb/s
    Channel(s) : 6 channels
    Channel layout : L R C LFE Ls Rs
    Sampling rate : 48.0 kHz
    Frame rate : 31.250 FPS (1536 SPF)
    Bit depth : 16 bits
    Compression mode : Lossy
    Stream size : 330 MiB (11%)
    Language : Russian
    Service kind : Complete Main
    Default : Yes
    Forced : No
    Audio #2
    ID : 3
    Format : AC-3
    Format/Info : Audio Coding 3
    Commercial name : Dolby Digital
    Codec ID : A_AC3
    Duration : 2 h 0 min
    Bit rate mode : Constant
    Bit rate : 448 kb/s
    Channel(s) : 6 channels
    Channel layout : L R C LFE Ls Rs
    Sampling rate : 48.0 kHz
    Frame rate : 31.250 FPS (1536 SPF)
    Bit depth : 16 bits
    Compression mode : Lossy
    Stream size : 385 MiB (13%)
    Language : English
    Service kind : Complete Main
    Default : No
    Forced : No
    Text #1
    ID : 4
    Format : UTF-8
    Codec ID : S_TEXT/UTF8
    Codec ID/Info : UTF-8 Plain Text
    Title : fors
    Language : Russian
    Default : No
    Forced : No
    Text #2
    ID : 5
    Format : UTF-8
    Codec ID : S_TEXT/UTF8
    Codec ID/Info : UTF-8 Plain Text
    Title : full
    Language : Russian
    Default : Yes
    Forced : No
    Text #3
    ID : 6
    Format : UTF-8
    Codec ID : S_TEXT/UTF8
    Codec ID/Info : UTF-8 Plain Text
    Title : full
    Language : English
    Default : No
    Forced : No
    Text #4
    ID : 7
    Format : UTF-8
    Codec ID : S_TEXT/UTF8
    Codec ID/Info : UTF-8 Plain Text
    Title : SDH
    Language : English
    Default : No
    Forced : No
    Menu
    00: 00: 00.000 : en: Chapter 01
    00: 06: 30.014 : en: Chapter 02
    00: 11: 41.200 : en: Chapter 03
    00: 15: 52.868 : en: Chapter 04
    00: 20: 21.762 : en: Chapter 05
    00: 27: 00.410 : en: Chapter 06
    00: 34: 03.958 : en: Chapter 07
    00: 40: 08.239 : en: Chapter 08
    00: 43: 21.181 : en: Chapter 09
    00: 47: 42.734 : en: Chapter 10
    00: 55: 36.291 : en: Chapter 11
    00: 59: 38.324 : en: Chapter 12
    01: 06: 51.215 : en: Chapter 13
    01: 11: 45.551 : en: Chapter 14
    01: 17: 40.614 : en: Chapter 15
    01: 21: 47.903 : en: Chapter 16
    01: 25: 25.537 : en: Chapter 17
    01: 27: 57.772 : en: Chapter 18
    01: 31: 37.033 : en: Chapter 19
    01: 33: 56.881 : en: Chapter 20
    01: 38: 30.779 : en: Chapter 21
    01: 44: 10.994 : en: Chapter 22
    01: 50: 55.357 : en: Chapter 23
    01: 53: 32.847 : en: Chapter 24

    Скриншоты для ознакомления



    Все одноименные релизы в Клубе
    Время раздачи: 24/7 (до появления первых 3-5 скачавших)


    Онлайн видео Рождённый стать королём



    Рождённый стать королём/The Kid Who Would Be King (2019) BDRip [H.264]
    Рейтинг →
     (голосов: 1, оценка 5/5, голосовать можно 1 раз )

    Другие торренты по теме:

  • Рождённый стать королем / The Kid Who Would Be King (2019) CamRip [AD]
  • Рождённый стать королём / The Kid Who Would Be King (2019) BDRip [H.264 / 720p]
  • Рождённый стать королём / The Kid Who Would Be King (2019) BDRip [H.264 / 1080p]
  • Рождённый стать королём / The Kid Who Would Be King (2019) WEB-DL [H.264 / 1080p-LQ]
  • Рождённый стать королём / The Kid Who Would Be King (2019) UHD BDRip [H.265 / 2160p-LQ] [4K, HDR, 10-bit]
  • Рождённый стать королём / The Kid Who Would Be King (2019) BDRemux [H.264 / 1080p]
  • Рождённый стать королём / The Kid Who Would Be King (2019) UHD BDRemux [H.265 / 2160p] [4K, HDR, 10-bit]
  • Рождённый стать королём / The Kid Who Would Be King (2019) BDRip [720p] ATV


    • Комментарии (0):

      Информация

      Информация

        Посетители, находящиеся в группе Гости, не могут оставлять комментарии в данной новости.

        ↓ Меню




        ↓ Опрос

        Вы добавили сайт в закладки?
        Да
        Нет


        Top 10 за месяц (Мультфильмы)