.
Авторизация | Регистрация

Торрент скачать бесплатно

  • support: webmaster@btracker.club
» » Осторожно: Грамп! / Ahi viene Cascarrabias (2018) WEB-DLRip торрент скачать бесплатно


    Осторожно: Грамп! / Ahi viene Cascarrabias (2018) WEB-DLRip торрент скачать бесплатно

    Дата: 22-04-2019, 05:00 | .torrent скачали: 1

    Осторожно: Грамп! / Ahi viene Cascarrabias (2018) WEB-DLRipПроизводство: США, Мексика/Anima Estudios, Prime Focus World
    Жанр: Комедия, Фентези, Приключения
    Режиссер: Андрес Кутерье

    Описание

    Главный герой мультфильма, мальчик Терри, был уверен, что забавные волшебники, драконы-полицейские, королевство воздушных шариков и другие самые причудливые явления встречаются только в книжках его бабушки. Но бабушка забыла предупредить: её сказки основаны на реальных событиях! Теперь Терри предстоит спасти волшебную страну Игрувию от злого волшебника Грампа, а помогать ему будут мечтательная принцесса Лучик и птичка-навигатор ДжипиСойка. Впереди — много опасных, но весёлых приключений, приятных (и не очень) знакомств и самых неожиданных открытий. Осторожно: сказка начинается!

    Возраст: 6+ (зрителям, достигшим 6 лет)
    Дата мировой премьеры: 1 марта 2018
    Дата российской премьеры: 28 июня 2018, МВК
    Релиз от: Megapeer
    Продолжительность: 01: 37: 04
    Качество видео: WEB-DLRip
    Перевод: Дублированный
    Субтитры: Отсутствуют
    Видео: Xvid, 720x304, ~1767 Kbps
    Аудио: AC3, 2 ch, 192 Kbps

    Общее
    Полное имя : C: UsersUserDesktopNNMClubHere.Comes.the.Grump.2018.1.46GB.MegaPeer.avi
    Формат : AVI
    Формат/Информация : Audio Video Interleave
    Размер файла : 1, 33 Гбайт
    Продолжительность : 1 ч. 37 м.
    Общий поток : 1966 Кбит/сек
    Видео
    Идентификатор : 0
    Формат : MPEG-4 Visual
    Профиль формата : Advanced Simple@L5
    Настройки формата : BVOP1/Custom Matrix
    Параметр BVOP формата : 1
    Параметр QPel формата : Нет
    Параметр GMC формата : Без точки перехода
    Параметр матрицы формата : Выборочная
    Идентификатор кодека : XVID
    Идентификатор кодека/Подсказка : XviD
    Продолжительность : 1 ч. 37 м.
    Битрейт : 1767 Кбит/сек
    Ширина : 720 пикселей
    Высота : 304 пикселя
    Соотношение сторон : 2, 35: 1
    Частота кадров : 24, 000 кадра/сек
    Цветовое пространство : YUV
    Субдискретизация насыщенности : 4: 2: 0
    Битовая глубина : 8 бит
    Тип развёртки : Прогрессивная
    Метод сжатия : С потерями
    Бит/(Пиксели*Кадры) : 0.336
    Размер потока : 1, 20 Гбайт (90%)
    Библиотека кодирования : XviD 73
    Аудио
    Идентификатор : 1
    Формат : AC-3
    Формат/Информация : Audio Coding 3
    Коммерческое название : Dolby Digital
    Идентификатор кодека : 2000
    Продолжительность : 1 ч. 37 м.
    Вид битрейта : Постоянный
    Битрейт : 192 Кбит/сек
    Каналы : 2 канала
    Channel layout : L R
    Частота : 48, 0 КГц
    Частота кадров : 31, 250 кадров/сек (1536 SPF)
    Битовая глубина : 16 бит
    Метод сжатия : С потерями
    Размер потока : 133 Мбайт (10%)
    Выравнивание : Соединение по промежуткам
    Продолжительность промежутка : 64 мс. (1, 54 видеокадра)
    Время предзагрузки промежутка : 192 мс.
    ServiceKind/String : Complete Main

    Скриншоты для ознакомления



    Все одноименные релизы в Клубе
    Время раздачи: 24/7 (до появления первых 3-5 скачавших)


    Онлайн видео Осторожно: Грамп!



    Осторожно: Грамп!/Ahi viene Cascarrabias (2018) WEB-DLRip
    Рейтинг →
     (голосов: 1, оценка 4/5, голосовать можно 1 раз )

    Другие торренты по теме:

  • Осторожно: Грамп! / Ahi viene Cascarrabias (2018) HDRip [AD]


    • Комментарии (0):

      Информация

      Информация

        Посетители, находящиеся в группе Гости, не могут оставлять комментарии в данной новости.

        ↓ Меню




        ↓ Опрос

        Вы добавили сайт в закладки?
        Да
        Нет


        Top 10 за месяц (Мультфильмы)