.
Авторизация | Регистрация

Торрент скачать бесплатно

  • support: webmaster@btracker.club
» » Дружные мопсы / Puppy Dog Pals (2018) SATRip (Сезон 2, серий 6 из 26) [Обновляемая] торрент скачать бесплатно


    Дружные мопсы / Puppy Dog Pals (2018) SATRip (Сезон 2, серий 6 из 26) [Обновляемая] торрент скачать бесплатно

    Дата: 22-04-2019, 05:00 | .torrent скачали: 0

    Дружные мопсы / Puppy Dog Pals (2018) SATRip (Сезон 2, серий 6 из 26) [Обновляемая]Производство: США
    Жанр: Компьютерная анимация
    Режиссер: Дон Маккиннон, Тревор Уолл, Стефани Арнетт

    Описание

    Весёлым братьям-мопсам Бинго и Ролли никогда не сидится на месте. Каждый день они выдумывают новые игры и развлечения, путешествуют по всему миру, узнают много нового и интересного о культуре и традиция разных стран. Но как бы далеко щенки не отправились, они всегда возвращаются домой к своему любимому хозяину — изобретателю Бобу и лучшим друзьям: кошке Шипе и роботу-собаке по кличке Г. А. В.

    Дата мировой премьеры: 12 октября 2018
    Дата российской премьеры: 6 апреля 2019
    Продолжительность: ~00: 11: 45 серия
    Качество видео: SATRip
    Перевод: Полный дубляж, вкл. песни
    Субтитры: отсутствуют
    Видео: Xvid, 704x400, ~~1200 kbps
    Аудио: MP3, 2 ch, 192 kbps

    General
    Complete name : УзнавайкаДружные мопсы 2 сезон любимого сериала1a Новенький щенок.avi
    Format : AVI
    Format/Info : Audio Video Interleave
    File size : 118 MiB
    Duration : 11 min 45 s
    Overall bit rate : 1 401 kb/s
    Writing library : VirtualDub build 40463/release
    Video
    ID : 0
    Format : MPEG-4 Visual
    Format profile : Advanced Simple@L5
    Format settings : BVOP2
    Format settings, BVOP : 2
    Format settings, QPel : No
    Format settings, GMC : No warppoints
    Format settings, Matrix : Default (H.263)
    Muxing mode : Packed bitstream
    Codec ID : XVID
    Codec ID/Hint : XviD
    Duration : 11 min 45 s
    Bit rate : 1 200 kb/s
    Width : 704 pixels
    Height : 400 pixels
    Display aspect ratio : 16: 9
    Frame rate : 25.000 FPS
    Color space : YUV
    Chroma subsampling : 4: 2: 0
    Bit depth : 8 bits
    Scan type : Progressive
    Compression mode : Lossy
    Bits/(Pixel*Frame) : 0.170
    Stream size : 101 MiB (86%)
    Writing library : XviD 67
    Audio
    ID : 1
    Format : MPEG Audio
    Format version : Version 1
    Format profile : Layer 3
    Format settings : Joint stereo
    Codec ID : 55
    Codec ID/Hint : MP3
    Duration : 11 min 45 s
    Bit rate mode : Constant
    Bit rate : 192 kb/s
    Channel(s) : 2 channels
    Sampling rate : 48.0 kHz
    Compression mode : Lossy
    Stream size : 16.1 MiB (14%)
    Alignment : Split accross interleaves
    Interleave, duration : 40 ms (1.00 video frame)
    Interleave, preload duratio : 500 ms


    Онлайн видео Дружные мопсы



    Дружные мопсы/Puppy Dog Pals (2018) SATRip (Сезон 2, серий 6 из 26) [Обновляемая]
    Рейтинг →
     (голосов: 1, оценка 5/5, голосовать можно 1 раз )

    Другие торренты по теме:

  • Дружные мопсы / Puppy Dog Pals (2017) SATRip (Сезон 1, серий 16 из ) [Обновляемая]


    • Комментарии (0):

      Информация

      Информация

        Посетители, находящиеся в группе Гости, не могут оставлять комментарии в данной новости.

        ↓ Меню




        ↓ Опрос

        Вы добавили сайт в закладки?
        Да
        Нет


        Top 10 за месяц (Мультфильмы)