.
Авторизация | Регистрация

Торрент скачать бесплатно

  • support: webmaster@btracker.club
» » Mimi o Sumaseba | Whisper of the Heart | Шёпот сердца [1995, Movie] BDRemux 1080p raw+rus торрент скачать бесплатно


    Mimi o Sumaseba | Whisper of the Heart | Шёпот сердца [1995, Movie] BDRemux 1080p raw+rus торрент скачать бесплатно

    Дата: 21-04-2019, 05:00 | .torrent скачали: 0

    Mimi o Sumaseba | Whisper of the Heart | Шёпот сердца [1995, Movie] BDRemux 1080p raw+rusТип: Movie
    Жанр: Романтика, Повседневность
    Продолжительность: 111 мин.
    Дата выпуска: 15.07.1995
    Производство: Studio Ghibli
    Режиссер: Кондо Ёсифуми
    Ссылки: World-Art

    Описание

    Школьница средних классов Сидзуку Цукисима обожает читать, глотая книги одну за другой. Однако какую бы книжку она ни брала из школьной библиотеки, в формуляре прочитавших её прежде значится имя Сэйдзи Амасава. После знакомства с этим необычным пареньком, ставшем её первой любовью, Сидзуку узнаёт много нового и о себе самой, о своих целях в жизни - открытие, которое необратимо изменит её судьбу.
    Качество видео: BDRemux
    Формат видео: AVC/H.264, 23.976 FPS, 0.662 bit/pixel
    Размер кадра: 1920х1080
    Битрейт видео: 32.9 Mb/s
    Язык озвучки: Японский и русский
    Аудио 1: JAP - DTS XLL 48.0 kHz6ch - 3 981 kb/s Original 5.1
    Аудио 2: RUS - DTS XLL 48.0 kHz6ch - 4 013 kb/s R5, RUSCICO
    Субтитры: Отсутствуют

    Скриншоты для ознакомления



    General
    Unique ID : 181007280950392906594928104585094688561 (0x882CBBF808AFFB59A2150F03AD42EF31)
    Complete name : E: Anime_Torrent_11995 Whisper of the Heart.mkv
    Format : Matroska
    Format version : Version 4
    File size : 31.7 GiB
    Duration : 1 h 50 min
    Overall bit rate mode : Variable
    Overall bit rate : 40.9 Mb/s
    Encoded date : UTC 2016-10-31 20: 38: 12
    Writing application : mkvmerge v9.5.0 (\'Quiet Fire\') 64bit
    Writing library : libebml v1.3.4 + libmatroska v1.4.5
    Video
    ID : 1
    Format : AVC
    Format/Info : Advanced Video Codec
    Format profile : High@L4.1
    Format settings : CABAC/2 Ref Frames
    Format settings, CABAC : Yes
    Format settings, ReFrames : 2 frames
    Codec ID : V_MPEG4/ISO/AVC
    Duration : 1 h 50 min
    Bit rate : 32.9 Mb/s
    Width : 1 920 pixels
    Height : 1 080 pixels
    Display aspect ratio : 16: 9
    Frame rate mode : Constant
    Frame rate : 23.976 (24000/1001) FPS
    Color space : YUV
    Chroma subsampling : 4: 2: 0
    Bit depth : 8 bits
    Scan type : Progressive
    Bits/(Pixel*Frame) : 0.662
    Stream size : 25.5 GiB (80%)
    Language : Japanese
    Default : Yes
    Forced : No
    Audio #1
    ID : 2
    Format : DTS XLL
    Format/Info : Digital Theater Systems
    Commercial name : DTS-HD Master Audio
    Codec ID : A_DTS
    Duration : 1 h 50 min
    Bit rate mode : Variable
    Bit rate : 3 981 kb/s
    Channel(s) : 6 channels
    Channel layout : C L R Ls Rs LFE
    Sampling rate : 48.0 kHz
    Frame rate : 93.750 FPS (512 SPF)
    Bit depth : 24 bits
    Compression mode : Lossless
    Delay relative to video : 8 ms
    Stream size : 3.08 GiB (10%)
    Title : Original
    Language : Japanese
    Default : Yes
    Forced : No
    Audio #2
    ID : 3
    Format : DTS XLL
    Format/Info : Digital Theater Systems
    Commercial name : DTS-HD Master Audio
    Codec ID : A_DTS
    Duration : 1 h 50 min
    Bit rate mode : Variable
    Bit rate : 4 013 kb/s
    Channel(s) : 6 channels
    Channel layout : C L R Ls Rs LFE
    Sampling rate : 48.0 kHz
    Frame rate : 93.750 FPS (512 SPF)
    Bit depth : 24 bits
    Compression mode : Lossless
    Stream size : 3.11 GiB (10%)
    Title : R5, RUSCICO
    Language : Russian
    Default : No
    Forced : No
    Время раздачи: 12: 00-00: 00 (до появления первых 3-5 скачавших)


    Онлайн видео Mimi o Sumaseba



    Mimi o Sumaseba | Whisper of the Heart | Шёпот сердца [1995, Movie] BDRemux 1080p raw+rus
    Рейтинг →
     (голосов: 1, оценка 5/5, голосовать можно 1 раз )

    Другие торренты по теме:

  • Mimi Terris - Flytta Hemifran (2015) [FLAC|Lossless|WEB-DL]<Vocal Jazz> скачать через торрент бесплатно
  • Mimi Page - Breathe Me In (2012) [MP3|320 кб / с] <Alternative Pop, Dream Pop, Trip Hop>
  • Mimi Page - The Ethereal Blues (2015) [MP3|320 кб / с] <Alternative Pop, Dream Pop, Trip Hop>
  • Как дела у Мими / What About Mimi (2000 – 2002) DVDRip (сезон 1-2, серий 26)
  • Hora, Mimi ga Mieteru yo! | Wei, Kan Jian Er Duo La! | Эй, у тебя ушки торчат! [2018, ONA, 1 из ] WEBRip 720p raw
  • Hora, Mimi ga Mieteru yo! - 2 | Wei, Kan Jian Er Duo La! - 2 | Эй, у тебя ушки торчат! - 2 [2019, ONA, 1 из 12] WEBRip 720p raw + HS


    • Комментарии (0):

      Информация

      Информация

        Посетители, находящиеся в группе Гости, не могут оставлять комментарии в данной новости.

        ↓ Меню




        ↓ Опрос

        Вы добавили сайт в закладки?
        Да
        Нет


        Top 10 за месяц (Мультфильмы)