.
Авторизация | Регистрация

Торрент скачать бесплатно

  • support: webmaster@btracker.club
» » Как приручить дракона 3 / How to Train Your Dragon: The Hidden World (2019) BDRip [H.264 / 720p-LQ] торрент скачать бесплатно


    Как приручить дракона 3 / How to Train Your Dragon: The Hidden World (2019) BDRip [H.264 / 720p-LQ] торрент скачать бесплатно

    Дата: 21-04-2019, 05:00 | .torrent скачали: 0

    Как приручить дракона 3 / How to Train Your Dragon: The Hidden World (2019) BDRip [H.264 / 720p-LQ]Производство: США, DreamWorks Animation, Mad Hatter Entertainment
    Жанр: Мультфильм, фэнтези, боевик, комедия, приключения, семейный
    Режиссер: Дин ДеБлуаa

    Описание

    Когда-то викинги жили в гармонии с драконами. В те времена они делили радость, горе… и последние штаны. Казалось, что так будет всегда, но появление загадочной Дневной Фурии изменило жизнь острова. И теперь Иккинг и Беззубик столкнутся с безжалостным охотником на драконов, жаждущим уничтожить все, что им дорого.

    Возраст: 6+ (зрителям, достигшим 6 лет)
    Рейтинг MPAA: PG (рекомендуется присутствие родителей)
    Дата мировой премьеры: 3 января 2019, ...
    Дата российской премьеры: 21 февраля 2019, UPI
    Релиз от: NNMClub
    Продолжительность: 01: 44: 06
    Качество видео: BDRip (batonchik )
    Перевод: Дублированный (iTunes)
    Субтитры: Английский
    Видео: AVC/H.264, 1280x544, 2592 Kbps, 23.976 fps
    Аудио: AC3, 6 ch, 384 Kbps - Русский | iTunes DUB
    --Information 19.04.2019 14: 33: 25 Standard error stream
    ---Information 19.04.2019 14: 33: 33 y4m info: 1280x544p 1: 1 @ 500/21 fps (cfr)
    ---Information 19.04.2019 14: 33: 33 x264 info: using SAR=1/1
    ---Information 19.04.2019 14: 33: 33 x264 info: using cpu capabilities: MMX2 SSE2Fast SSSE3 SSE4.2 AVX
    ---Information 19.04.2019 14: 33: 33 x264 info: profile Progressive High, level 4.1, 4: 2: 0, 8-bit
    ---Information 19.04.2019 17: 53: 36 x264 info: frame I: 1036 Avg QP: 17.51 size: 78635
    ---Information 19.04.2019 17: 53: 36 x264 info: frame P: 42711 Avg QP: 19.67 size: 26291
    ---Information 19.04.2019 17: 53: 36 x264 info: frame B: 106009 Avg QP: 22.42 size: 7837

    ---Information 19.04.2019 17: 53: 36 x264 info: consecutive B-frames: 4.9% 5.4% 22.5% 30.7% 15.6% 17.9% 1.8% 0.8% 0.2% 0.1% 0.3%

    General
    Complete name : Как приручить дракона 3 (2019) BDRip.H.264.720p.NNMClub.mkv
    Format : Matroska
    Format version : Version 2
    File size : 2.18 GiB
    Duration : 1 h 44 min
    Overall bit rate : 2 992 kb/s
    Movie name : Как приручить дракона 3 (2019) BDRip.H.264.720p.NNMClub
    Encoded date : UTC 2019-04-20 06: 25: 09
    Writing application : mkvmerge v32.0.0 (\'Astral Progressions\') 64-bit
    Writing library : libebml v1.3.7 + libmatroska v1.5.0
    Video
    ID : 1
    Format : AVC
    Format/Info : Advanced Video Codec
    Format profile : High@L4.1
    Format settings : CABAC/12 Ref Frames
    Format settings, CABAC : Yes
    Format settings, RefFrames : 12 frames
    Codec ID : V_MPEG4/ISO/AVC
    Duration : 1 h 44 min
    Bit rate : General
    Unique ID : 244729156666408748262786420808025661641 (0xB81D1F00FD49DD5DF021B637DE3060C9)
    Complete name : C: 01Как приручить дракона 3 (2019) BDRip.H.264.720p.NNMClub.mkv
    Format : Matroska
    Format version : Version 2
    File size : 2.18 GiB
    Duration : 1 h 44 min
    Overall bit rate : 2 992 kb/s
    Movie name : Как приручить дракона 3 (2019) BDRip.H.264.720p.NNMClub
    Encoded date : UTC 2019-04-20 06: 25: 09
    Writing application : mkvmerge v32.0.0 (\'Astral Progressions\') 64-bit
    Writing library : libebml v1.3.7 + libmatroska v1.5.0
    Video
    ID : 1
    Format : AVC
    Format/Info : Advanced Video Codec
    Format profile : High@L4.1
    Format settings : CABAC/12 Ref Frames
    Format settings, CABAC : Yes
    Format settings, RefFrames : 12 frames
    Codec ID : V_MPEG4/ISO/AVC
    Duration : 1 h 44 min
    Bit rate : 2 592 kb/s
    Width : 1 280 pixels
    Height : 544 pixels
    Display aspect ratio : 2.35: 1
    Frame rate mode : Constant
    Frame rate : 23.976 (24000/1001) FPS
    Color space : YUV
    Chroma subsampling : 4: 2: 0
    Bit depth : 8 bits
    Scan type : Progressive
    Bits/(Pixel*Frame) : 0.155
    Stream size : 1.85 GiB (85%)
    Title : Как приручить дракона 3 (2019) BDRip.H.264.720p.NNMClub
    Writing library : x264 core 157 r2969 d4099dd
    Encoding settings : cabac=1/ref=12/deblock=1: -2: -2/analyse=0x3: 0x133/me=umh/subme=10/psy=1/psy_rd=1.00: 0.25/mixed_ref=1/me_range=24/chroma_me=1/trellis=2/8x8dct=1/cqm=0/deadzone=6, 6/fast_pskip=0/chroma_qp_offset=-4/threads=12/lookahead_threads=3/sliced_threads=0/nr=0/decimate=0/interlaced=0/bluray_compat=0/constrained_intra=0/bframes=10/b_pyramid=2/b_adapt=2/b_bias=0/direct=1/weightb=1/open_gop=0/weightp=2/keyint=240/keyint_min=23/scenecut=40/intra_refresh=0/rc_lookahead=40/rc=2pass/mbtree=1/bitrate=2592/ratetol=1.0/qcomp=0.60/qpmin=0/qpmax=69/qpstep=4/cplxblur=20.0/qblur=0.5/vbv_maxrate=50000/vbv_bufsize=62500/nal_hrd=none/filler=0/ip_ratio=1.10/aq=3: 0.80
    Language : English
    Default : Yes
    Forced : No
    Audio
    ID : 2
    Format : AC-3
    Format/Info : Audio Coding 3
    Commercial name : Dolby Digital
    Codec ID : A_AC3
    Duration : 1 h 44 min
    Bit rate mode : Constant
    Bit rate : 384 kb/s
    Channel(s) : 6 channels
    Channel layout : L R C LFE Ls Rs
    Sampling rate : 48.0 kHz
    Frame rate : 31.250 FPS (1536 SPF)
    Bit depth : 16 bits
    Compression mode : Lossy
    Stream size : 286 MiB (13%)
    Title : Дублированный (iTunes)
    Language : Russian
    Service kind : Complete Main
    Default : Yes
    Forced : No
    Text
    ID : 3
    Format : UTF-8
    Codec ID : S_TEXT/UTF8
    Codec ID/Info : UTF-8 Plain Text
    Language : English
    Default : No
    Forced : No
    Menu
    00: 00: 00.000 : en: Chapter 01
    00: 05: 13.522 : en: Chapter 02
    00: 10: 26.835 : en: Chapter 03
    00: 14: 52.225 : en: Chapter 04
    00: 20: 33.065 : en: Chapter 05
    00: 24: 38.686 : en: Chapter 06
    00: 28: 40.886 : en: Chapter 07
    00: 31: 10.118 : en: Chapter 08
    00: 37: 35.128 : en: Chapter 09
    00: 44: 38.551 : en: Chapter 10
    00: 47: 53.579 : en: Chapter 11
    00: 53: 11.021 : en: Chapter 12
    00: 57: 36.286 : en: Chapter 13
    01: 01: 25.056 : en: Chapter 14
    01: 08: 55.923 : en: Chapter 15
    01: 14: 17.703 : en: Chapter 16
    01: 19: 31.141 : en: Chapter 17
    01: 23: 23.290 : en: Chapter 18
    01: 28: 24.716 : en: Chapter 19
    01: 33: 53.378 : en: Chapter 20

    Скриншоты для ознакомления



    Все одноименные релизы в Клубе
    Время раздачи: 24/7 (мультитрекер) (до появления первых 3-5 скачавших)


    Онлайн видео Как приручить дракона 3



    Как приручить дракона 3/How to Train Your Dragon: The Hidden World (2019) BDRip [H.264/720p-LQ]
    Рейтинг →
     (голосов: 1, оценка 4/5, голосовать можно 1 раз )

    Другие торренты по теме:

  • Как приручить дракона 2 / How to Train Your Dragon 2 (2014) BDRip [1080p]
  • Как приручить дракона 2 / How to Train Your Dragon 2 (2014) Blu-ray 3D [1080p]
  • Как приручить дракона 2 / How to Train Your Dragon 2 (2014) BDRemux 3D [1080p] [3D / 2D] скачать через торрент бесплатно
  • Как приручить дракона 2 / How to Train Your Dragon 2 (2014) BDRip [1080p] 3D [Вертикальная анаморфная стереопара] скачать через торрент бесплатно
  • Как приручить дракона 2 / How to Train Your Dragon 2 (2014) BDRip [720p] скачать через торрент бесплатно
  • Как приручить дракона 2 / How to Train Your Dragon 2 (2014) Blu-ray [1080p] скачать через торрент бесплатно
  • Как приручить дракона 2 / How to Train Your Dragon 2 (2014) BDRemux [1080p]
  • Как приручить дракона 2 / How to Train Your Dragon 2 (2014) BDRip [H.264]


    • Комментарии (0):

      Информация

      Информация

        Посетители, находящиеся в группе Гости, не могут оставлять комментарии в данной новости.

        ↓ Меню




        ↓ Опрос

        Вы добавили сайт в закладки?
        Да
        Нет


        Top 10 за месяц (Мультфильмы)