.
Авторизация | Регистрация

Торрент скачать бесплатно

  • support: webmaster@btracker.club
» » Рождённый стать королём / The Kid Who Would Be King (2019) UHD BDRemux [H.265 / 2160p] [4K, HDR, 10-bit] торрент скачать бесплатно


    Рождённый стать королём / The Kid Who Would Be King (2019) UHD BDRemux [H.265 / 2160p] [4K, HDR, 10-bit] торрент скачать бесплатно

    Дата: 20-04-2019, 05:00 | .torrent скачали: 0

    Рождённый стать королём / The Kid Who Would Be King (2019) UHD BDRemux [H.265 / 2160p] [4K, HDR, 10-bit]Производство: Великобритания, США/Big Talk Productions, TSG Entertainment, Working Title Films
    Жанр: Фэнтези, Боевик, Приключения, Семейный
    Режиссер: Джо Корниш

    Актеры
    Луис Эшборн Серкис, Денис Гоф, Дин Чауму, Том Тейлор, Рианна Доррис, Нэйтан Стюарт-Джарретт, Нома Думезвени, Ребекка Фергюсон, Марк Боннар, Энгус Имри

    Описание

    Повседневные проблемы 12-летнего Алекса отходят на второй план после того, как он находит легендарный Экскалибур. И теперь, когда меч короля Артура оказывается в руках самого неудачливого подростка в Британии, начинается грандиозное приключение, в ходе которого Алекс и его друзья должны остановить злую средневековую волшебницу Моргану и не дать ей уничтожить мир.

    Возраст: 6+ (зрителям, достигшим 6 лет)
    Рейтинг MPAA: PG (рекомендуется присутствие родителей)
    Дата мировой премьеры: 16 января 2019
    Дата российской премьеры: 14 марта 2019, Двадцатый Век Фокс СНГ
    Цифровой релиз: 19 апреля 2019, Двадцатый Век Фокс СНГ
    Релиз от: селезень
    Продолжительность: 02: 00: 08
    Качество видео: UHD BDRemux (HDR)
    Перевод: Дублированный (iTunes)
    Субтитры: Русские (полные, форсированные), украинские (полные, форсированные), английские
    Видео: HEVC/H.265, 3840x2160, 48, 3 Mbps
    Аудио #1: AC3, 6 ch, 384 kbps - Русский
    Аудио #2: AAC, 2 ch, 126 kbps - Украинский
    Аудио #3: TrueHD+Atmos, 8 ch, 4449 kbps -Английский
    Аудио #4: AC3, 6 ch, 640 kbps - Английский

    General
    Unique ID : 34026938355204878452369134035603386258 (0x1999599648DA7BBC829F3C8CB3F56F92)
    Complete name : U: The.Kid.Who.Would.Be.King.2019.BDREMUX.2160p.HDR.seleZen.mkv
    Format : Matroska
    Format version : Version 4/Version 2
    File size : 45.3 GiB
    Duration : 2 h 0 min
    Overall bit rate mode : Variable
    Overall bit rate : 53.9 Mb/s
    Movie name : The Kid Who Would Be King 2019 from селезень
    Encoded date : UTC 2019-04-18 22: 02: 30
    Writing application : mkvmerge v32.0.0 (\'Astral Progressions\') 64-bit
    Writing library : libebml v1.3.7 + libmatroska v1.5.0
    Video
    ID : 1
    Format : HEVC
    Format/Info : High Efficiency Video Coding
    Format profile : Main10@L5.1@High
    Codec ID : V_MPEGH/ISO/HEVC
    Duration : 2 h 0 min
    Bit rate : 48.3 Mb/s
    Width : 3 840 pixels
    Height : 2 160 pixels
    Display aspect ratio : 16: 9
    Frame rate mode : Constant
    Frame rate : 23.976 (24000/1001) FPS
    Color space : YUV
    Chroma subsampling : 4: 2: 0 (Type 2)
    Bit depth : 10 bits
    Bits/(Pixel*Frame) : 0.243
    Stream size : 40.5 GiB (89%)
    Language : English
    Default : Yes
    Forced : No
    Color range : Limited
    Color primaries : BT.2020
    Transfer characteristics : PQ
    Matrix coefficients : BT.2020 non-constant
    Mastering display color pri : Display P3
    Mastering display luminance : min: 0.0050 cd/m2, max: 1000 cd/m2
    Audio #1
    ID : 2
    Format : AC-3
    Format/Info : Audio Coding 3
    Codec ID : A_AC3
    Duration : 2 h 0 min
    Bit rate mode : Constant
    Bit rate : 384 kb/s
    Channel(s) : 6 channels
    Channel positions : Front: L C R, Side: L R, LFE
    Sampling rate : 48.0 kHz
    Frame rate : 31.250 FPS (1536 SPF)
    Bit depth : 16 bits
    Compression mode : Lossy
    Stream size : 330 MiB (1%)
    Title : iTunes
    Language : Russian
    Service kind : Complete Main
    Default : Yes
    Forced : Yes
    Audio #2
    ID : 3
    Format : AAC
    Format/Info : Advanced Audio Codec
    Format profile : LC
    Codec ID : A_AAC-2
    Duration : 2 h 0 min
    Bit rate : 126 kb/s
    Channel(s) : 2 channels
    Channel positions : Front: L R
    Sampling rate : 48.0 kHz
    Frame rate : 46.875 FPS (1024 SPF)
    Compression mode : Lossy
    Stream size : 109 MiB (0%)
    Title : iTunes
    Language : Ukrainian
    Default : No
    Forced : No
    Audio #3
    ID : 4
    Format : TrueHD
    Format profile : TrueHD+Atmos/TrueHD
    Codec ID : A_TRUEHD
    Duration : 2 h 0 min
    Bit rate mode : Variable
    Bit rate : 4 449 kb/s
    Maximum bit rate : 8 607 kb/s
    Channel(s) : Object Based/8 channels
    Channel positions : Object Based/Front: L C R, Side: L R, Back: L R, LFE
    Sampling rate : /48.0 kHz
    Frame rate : 1 200.000 FPS (40 SPF)
    Compression mode : Lossless
    Stream size : 3.73 GiB (8%)
    Title : Original
    Language : English
    Default : No
    Forced : No
    Audio #4
    ID : 5
    Format : AC-3
    Format/Info : Audio Coding 3
    Codec ID : A_AC3
    Duration : 2 h 0 min
    Bit rate mode : Constant
    Bit rate : 640 kb/s
    Channel(s) : 6 channels
    Channel positions : Front: L C R, Side: L R, LFE
    Sampling rate : 48.0 kHz
    Frame rate : 31.250 FPS (1536 SPF)
    Bit depth : 16 bits
    Compression mode : Lossy
    Stream size : 550 MiB (1%)
    Language : English
    Service kind : Complete Main
    Default : No
    Forced : No
    Text #1
    ID : 6
    Format : UTF-8
    Codec ID : S_TEXT/UTF8
    Codec ID/Info : UTF-8 Plain Text
    Duration : 1 h 59 min
    Bit rate : 1 b/s
    Count of elements : 31
    Stream size : 1.20 KiB (0%)
    Title : Forced
    Language : Russian
    Default : Yes
    Forced : Yes
    Text #2
    ID : 7
    Format : UTF-8
    Codec ID : S_TEXT/UTF8
    Codec ID/Info : UTF-8 Plain Text
    Duration : 1 h 59 min
    Bit rate : 86 b/s
    Count of elements : 1604
    Stream size : 75.3 KiB (0%)
    Title : Full
    Language : Russian
    Default : No
    Forced : No
    Text #3
    ID : 8
    Format : UTF-8
    Codec ID : S_TEXT/UTF8
    Codec ID/Info : UTF-8 Plain Text
    Duration : 1 h 59 min
    Bit rate : 0 b/s
    Count of elements : 17
    Stream size : 642 Bytes (0%)
    Title : Forced
    Language : Ukrainian
    Default : No
    Forced : No
    Text #4
    ID : 9
    Format : UTF-8
    Codec ID : S_TEXT/UTF8
    Codec ID/Info : UTF-8 Plain Text
    Duration : 1 h 59 min
    Bit rate : 81 b/s
    Count of elements : 1604
    Stream size : 71.2 KiB (0%)
    Title : Full
    Language : Ukrainian
    Default : No
    Forced : No
    Text #5
    ID : 10
    Format : UTF-8
    Codec ID : S_TEXT/UTF8
    Codec ID/Info : UTF-8 Plain Text
    Duration : 1 h 59 min
    Bit rate : 51 b/s
    Count of elements : 1640
    Stream size : 45.2 KiB (0%)
    Title : Full
    Language : English
    Default : No
    Forced : No
    Text #6
    ID : 11
    Format : UTF-8
    Codec ID : S_TEXT/UTF8
    Codec ID/Info : UTF-8 Plain Text
    Duration : 1 h 59 min
    Bit rate : 62 b/s
    Count of elements : 2010
    Stream size : 54.6 KiB (0%)
    Title : SDH
    Language : English
    Default : No
    Forced : No
    Menu
    00: 00: 00.000 : en: Chapter 1
    00: 06: 30.015 : en: Chapter 2
    00: 11: 41.200 : en: Chapter 3
    00: 15: 52.869 : en: Chapter 4
    00: 20: 21.762 : en: Chapter 5
    00: 27: 00.410 : en: Chapter 6
    00: 34: 03.959 : en: Chapter 7
    00: 40: 08.239 : en: Chapter 8
    00: 43: 21.182 : en: Chapter 9
    00: 47: 42.735 : en: Chapter 10
    00: 55: 36.291 : en: Chapter 11
    00: 59: 38.325 : en: Chapter 12
    01: 06: 51.216 : en: Chapter 13
    01: 11: 45.551 : en: Chapter 14
    01: 17: 40.614 : en: Chapter 15
    01: 21: 47.903 : en: Chapter 16
    01: 25: 25.537 : en: Chapter 17
    01: 27: 57.772 : en: Chapter 18
    01: 31: 37.033 : en: Chapter 19
    01: 33: 56.881 : en: Chapter 20
    01: 38: 30.780 : en: Chapter 21
    01: 44: 10.995 : en: Chapter 22
    01: 50: 55.357 : en: Chapter 23
    01: 53: 32.848 : en: Chapter 24

    Скриншоты для ознакомления



    Все одноименные релизы в Клубе
    Время раздачи: Раздаю до первых 5-ти скачавших, на раздачу не возвращаюсь...


    Онлайн видео Рождённый стать королём



    Рождённый стать королём/The Kid Who Would Be King (2019) UHD BDRemux [H.265/2160p] [4K, HDR, 10-bit]
    Рейтинг →
     (голосов: 1, оценка 3/5, голосовать можно 1 раз )

    Другие торренты по теме:

  • Рождённый стать королем / The Kid Who Would Be King (2019) CamRip [AD]
  • Рождённый стать королём / The Kid Who Would Be King (2019) BDRip [H.264 / 720p]
  • Рождённый стать королём / The Kid Who Would Be King (2019) BDRip [H.264 / 1080p]
  • Рождённый стать королём / The Kid Who Would Be King (2019) WEB-DL [H.264 / 1080p-LQ]
  • Рождённый стать королём / The Kid Who Would Be King (2019) UHD BDRip [H.265 / 2160p-LQ] [4K, HDR, 10-bit]
  • Рождённый стать королём / The Kid Who Would Be King (2019) BDRemux [H.264 / 1080p]
  • Рождённый стать королём / The Kid Who Would Be King (2019) BDRip [720p] ATV
  • Рождённый стать королём / The Kid Who Would Be King (2019) BDRip [1080p] ATV


    • Комментарии (0):

      Информация

      Информация

        Посетители, находящиеся в группе Гости, не могут оставлять комментарии в данной новости.

        ↓ Меню




        ↓ Опрос

        Вы добавили сайт в закладки?
        Да
        Нет


        Top 10 за месяц (Мультфильмы)