.
Авторизация | Регистрация

Торрент скачать бесплатно

  • support: webmaster@btracker.club
» » Рождённый стать королём / The Kid Who Would Be King (2019) UHD BDRip [H.265 / 2160p-LQ] [4K, HDR, 10-bit] торрент скачать бесплатно


    Рождённый стать королём / The Kid Who Would Be King (2019) UHD BDRip [H.265 / 2160p-LQ] [4K, HDR, 10-bit] торрент скачать бесплатно

    Дата: 20-04-2019, 05:00 | .torrent скачали: 0

    Рождённый стать королём / The Kid Who Would Be King (2019) UHD BDRip [H.265 / 2160p-LQ] [4K, HDR, 10-bit]Производство: Великобритания, США/Big Talk Productions, TSG Entertainment, Working Title Films
    Жанр: Фэнтези, Боевик, Приключения, Семейный
    Режиссер: Джо Корниш

    Актеры
    Луис Эшборн Серкис, Денис Гоф, Дин Чауму, Том Тейлор, Рианна Доррис, Нэйтан Стюарт-Джарретт, Нома Думезвени, Ребекка Фергюсон, Марк Боннар, Энгус Имри

    Описание

    Повседневные проблемы 12-летнего Алекса отходят на второй план после того, как он находит легендарный Экскалибур. И теперь, когда меч короля Артура оказывается в руках самого неудачливого подростка в Британии, начинается грандиозное приключение, в ходе которого Алекс и его друзья должны остановить злую средневековую волшебницу Моргану и не дать ей уничтожить мир.

    Возраст: 6+ (зрителям, достигшим 6 лет)
    Рейтинг MPAA: PG (рекомендуется присутствие родителей)
    Дата мировой премьеры: 16 января 2019
    Дата российской премьеры: 14 марта 2019, Двадцатый Век Фокс СНГ
    Цифровой релиз: 19 апреля 2019, Двадцатый Век Фокс СНГ
    Релиз от: TeamHD
    Продолжительность: 02: 00: 08
    Качество видео: UHD BDRip 2160p (HDR)
    Перевод: Дублированный (iTunes)
    Субтитры: Русские (forced, full), Украинские (forced, full), Английские (full, SDH)
    Видео: HEVC/H.265, 3840x1608, 12, 6 Mbps
    Аудио #1: AC3, 6 ch, 384 kbps - Русский
    Аудио #2: AC3, 2 ch, 192 kbps - Украинский
    Аудио #3: DTS, 6 ch, 1509 kbps -Английский

    Общее
    General
    Unique ID : 201147713133327773137848086090896327692 (0x9753A3F10C42C1D0088CAD53A777440C)
    Complete name : U: The.Kid.Who.Would.Be.King.2019.2160p.HDR.BDRip.TeamHD.mkv
    Format : Matroska
    Format version : Version 4
    File size : 14.6 GiB
    Duration : 2 h 0 min
    Overall bit rate : 17.4 Mb/s
    Encoded date : UTC 2019-04-18 20: 21: 40
    Writing application : mkvmerge v33.0.0 (\'A Little Bit of Madness\') 64-bit
    Writing library : libebml v1.3.7 + libmatroska v1.5.0
    Cover : Yes
    Attachments : cover.jpg
    Video
    ID : 1
    Format : HEVC
    Format/Info : High Efficiency Video Coding
    Commercial name : HDR10
    Format profile : Main10@L5.1@High
    Codec ID : V_MPEGH/ISO/HEVC
    Duration : 2 h 0 min
    Bit rate : 15.3 Mb/s
    Width : 3 840 pixels
    Height : 1 608 pixels
    Display aspect ratio : 2.40: 1
    Frame rate mode : Constant
    Frame rate : 23.976 (24000/1001) FPS
    Color space : YUV
    Chroma subsampling : 4: 2: 0 (Type 2)
    Bit depth : 10 bits
    Bits/(Pixel*Frame) : 0.104
    Stream size : 12.9 GiB (88%)
    Title : BDRip.2160p.HDR by Silverok
    Writing library : x265 3.0_Au+10-74a8672ea4f7: WindowsGCC 8.2.164 bit 10bit
    Encoding settings : cpuid=1111039/frame-threads=16/numa-pools=24, 24, 24, 24/wpp/no-pmode/no-pme/no-psnr/no-ssim/log-level=2/input-csp=1/input-res=3840x1608/interlace=0/total-frames=0/level-idc=51/high-tier=1/uhd-bd=0/ref=3/no-allow-non-conformance/repeat-t_heads/annexb/aud/hrd/info/hash=0/no-temporal-layers/no-open-gop/min-keyint=1/keyint=24/gop-lookahead=0/bframes=4/b-adapt=2/b-pyramid/bframe-bias=0/rc-lookahead=25/lookahead-slices=4/scenecut=40/radl=0/no-splice/no-intra-refresh/ctu=64/min-cu-size=8/no-rect/no-amp/max-tu-size=32/tu-inter-depth=1/tu-intra-depth=1/limit-tu=0/rdoq-level=0/dynamic-rd=0.00/no-ssim-rd/signhide/no-tskip/nr-intra=0/nr-inter=0/no-constrained-intra/strong-intra-smoothing/max-merge=2/limit-refs=3/no-limit-modes/me=1/subme=2/merange=57/temporal-mvp/weightp/no-weightb/no-analyze-src-pics/deblock=0: 0/no-sao/no-sao-non-deblock/rd=3/no-early-skip/rskip/no-fast-intra/no-tskip-fast/no-cu-lossless/no-b-intra/no-splitrd-skip/rdpenalty=0/psy-rd=2.00/psy-rdoq=0.00/no-rd-refine/no-lossless/cbqpoffs=0/crqpoffs=0/rc=crf/crf=16.0/qcomp=0.60/qpstep=4/stats-write=0/stats-read=0/vbv-maxrate=160000/vbv-bufsize=160000/vbv-init=0.9/crf-max=0.0/crf-min=0.0/ipratio=1.40/pbratio=1.30/aq-mode=1/aq-strength=1.00/cutree/zone-count=0/no-strict-cbr/qg-size=32/no-rc-grain/qpmax=69/qpmin=0/no-const-vbv/sar=1/overscan=0/videoformat=5/range=0/colorprim=9/transfer=16/colormatrix=9/chromaloc=1/chromaloc-top=2/chromaloc-bottom=2/display-window=0/master-display=G(13250, 34500)B(7500, 3000)R(34000, 16000)WP(15635, 16450)L(10000000, 50)/max-cll=0, 0/min-luma=0/max-luma=1023/log2-max-poc-lsb=8/vui-timing-info/vui-hrd-info/slices=1/opt-qp-pps/opt-ref-list-length-pps/no-multi-pass-opt-rps/scenecut-bias=0.05/no-opt-cu-delta-qp/no-aq-motion/hdr/hdr-opt/no-dhdr10-opt/no-idr-recovery-sei/analysis-reuse-level=5/scale-factor=0/refine-intra=0/refine-inter=0/refine-mv=0/refine-ctu-distortion=0/no-limit-sao/ctu-info=0/no-lowpass-dct/refine-analysis-type=-1229181693/copy-pic=1/max-ausize-factor=1.0/no-dynamic-refine/no-single-sei/no-hevc-aq/no-svt/qp-adaptation-range=1.00
    Default : Yes
    Forced : No
    Color range : Limited
    Color primaries : BT.2020
    Transfer characteristics : PQ
    Matrix coefficients : BT.2020 non-constant
    Mastering display color primaries : Display P3
    Mastering display luminance : min: 0.0050 cd/m2, max: 1000 cd/m2
    Audio #1
    ID : 2
    Format : AC-3
    Format/Info : Audio Coding 3
    Commercial name : Dolby Digital
    Codec ID : A_AC3
    Duration : 2 h 0 min
    Bit rate mode : Constant
    Bit rate : 384 kb/s
    Channel(s) : 6 channels
    Channel layout : L R C LFE Ls Rs
    Sampling rate : 48.0 kHz
    Frame rate : 31.250 FPS (1536 SPF)
    Bit depth : 16 bits
    Compression mode : Lossy
    Stream size : 330 MiB (2%)
    Title : Dub, iTunes
    Language : Russian
    Service kind : Complete Main
    Default : Yes
    Forced : No
    Audio #2
    ID : 3
    Format : AC-3
    Format/Info : Audio Coding 3
    Commercial name : Dolby Digital
    Codec ID : A_AC3
    Duration : 2 h 0 min
    Bit rate mode : Constant
    Bit rate : 192 kb/s
    Channel(s) : 2 channels
    Channel layout : L R
    Sampling rate : 48.0 kHz
    Frame rate : 31.250 FPS (1536 SPF)
    Bit depth : 16 bits
    Compression mode : Lossy
    Stream size : 165 MiB (1%)
    Title : Dub, iTunes
    Language : Ukrainian
    Service kind : Complete Main
    Default : No
    Forced : No
    Audio #3
    ID : 4
    Format : DTS
    Format/Info : Digital Theater Systems
    Codec ID : A_DTS
    Duration : 2 h 0 min
    Bit rate mode : Constant
    Bit rate : 1 509 kb/s
    Channel(s) : 6 channels
    Channel layout : C L R Ls Rs LFE
    Sampling rate : 48.0 kHz
    Frame rate : 93.750 FPS (512 SPF)
    Bit depth : 24 bits
    Compression mode : Lossy
    Stream size : 1.27 GiB (9%)
    Language : English
    Default : No
    Forced : No
    Text #1
    ID : 5
    Format : UTF-8
    Codec ID : S_TEXT/UTF8
    Codec ID/Info : UTF-8 Plain Text
    Duration : 1 h 31 min
    Bit rate : 4 b/s
    Count of elements : 30
    Stream size : 2.83 KiB (0%)
    Title : Forced
    Language : Russian
    Default : Yes
    Forced : No
    Text #2
    ID : 6
    Format : UTF-8
    Codec ID : S_TEXT/UTF8
    Codec ID/Info : UTF-8 Plain Text
    Duration : 1 h 53 min
    Bit rate : 90 b/s
    Count of elements : 1603
    Stream size : 74.8 KiB (0%)
    Title : Full
    Language : Russian
    Default : No
    Forced : No
    Text #3
    ID : 7
    Format : UTF-8
    Codec ID : S_TEXT/UTF8
    Codec ID/Info : UTF-8 Plain Text
    Duration : 1 h 31 min
    Bit rate : 0 b/s
    Count of elements : 16
    Stream size : 568 Bytes (0%)
    Title : Forced
    Language : Ukrainian
    Default : No
    Forced : No
    Text #4
    ID : 8
    Format : UTF-8
    Codec ID : S_TEXT/UTF8
    Codec ID/Info : UTF-8 Plain Text
    Duration : 1 h 53 min
    Bit rate : 85 b/s
    Count of elements : 1603
    Stream size : 71.1 KiB (0%)
    Title : Full
    Language : Ukrainian
    Default : No
    Forced : No
    Text #5
    ID : 9
    Format : UTF-8
    Codec ID : S_TEXT/UTF8
    Codec ID/Info : UTF-8 Plain Text
    Duration : 1 h 59 min
    Bit rate : 53 b/s
    Count of elements : 1633
    Stream size : 46.8 KiB (0%)
    Title : Full
    Language : English
    Default : No
    Forced : No
    Text #6
    ID : 10
    Format : UTF-8
    Codec ID : S_TEXT/UTF8
    Codec ID/Info : UTF-8 Plain Text
    Duration : 1 h 59 min
    Bit rate : 60 b/s
    Count of elements : 1995
    Stream size : 53.1 KiB (0%)
    Title : SDH
    Language : English
    Default : No
    Forced : No
    Menu
    00: 00: 00.000 : en: Chapter 01
    00: 06: 30.015 : en: Chapter 02
    00: 11: 41.200 : en: Chapter 03
    00: 15: 52.869 : en: Chapter 04
    00: 20: 21.762 : en: Chapter 05
    00: 27: 00.410 : en: Chapter 06
    00: 34: 03.959 : en: Chapter 07
    00: 40: 08.239 : en: Chapter 08
    00: 43: 21.182 : en: Chapter 09
    00: 47: 42.735 : en: Chapter 10
    00: 55: 36.291 : en: Chapter 11
    00: 59: 38.325 : en: Chapter 12
    01: 06: 51.216 : en: Chapter 13
    01: 11: 45.551 : en: Chapter 14
    01: 17: 40.614 : en: Chapter 15
    01: 21: 47.903 : en: Chapter 16
    01: 25: 25.537 : en: Chapter 17
    01: 27: 57.772 : en: Chapter 18
    01: 31: 37.033 : en: Chapter 19
    01: 33: 56.881 : en: Chapter 20
    01: 38: 30.780 : en: Chapter 21
    01: 44: 10.995 : en: Chapter 22
    01: 50: 55.357 : en: Chapter 23
    01: 53: 32.848 : en: Chapter 24

    Скриншоты для ознакомления



    Все одноименные релизы в Клубе
    Время раздачи: Раздаю до первых 5-ти скачавших, на раздачу не возвращаюсь...


    Онлайн видео Рождённый стать королём



    Рождённый стать королём/The Kid Who Would Be King (2019) UHD BDRip [H.265/2160p-LQ] [4K, HDR, 10-bit]
    Рейтинг →
     (голосов: 1, оценка 5/5, голосовать можно 1 раз )

    Другие торренты по теме:

  • Рождённый стать королем / The Kid Who Would Be King (2019) CamRip [AD]
  • Рождённый стать королём / The Kid Who Would Be King (2019) BDRip [H.264 / 720p]
  • Рождённый стать королём / The Kid Who Would Be King (2019) BDRip [H.264 / 1080p]
  • Рождённый стать королём / The Kid Who Would Be King (2019) WEB-DL [H.264 / 1080p-LQ]
  • Рождённый стать королём / The Kid Who Would Be King (2019) BDRemux [H.264 / 1080p]
  • Рождённый стать королём / The Kid Who Would Be King (2019) UHD BDRemux [H.265 / 2160p] [4K, HDR, 10-bit]
  • Рождённый стать королём / The Kid Who Would Be King (2019) BDRip [720p] ATV
  • Рождённый стать королём / The Kid Who Would Be King (2019) BDRip [1080p] ATV


    • Комментарии (0):

      Информация

      Информация

        Посетители, находящиеся в группе Гости, не могут оставлять комментарии в данной новости.

        ↓ Меню




        ↓ Опрос

        Вы добавили сайт в закладки?
        Да
        Нет


        Top 10 за месяц (Мультфильмы)