.
Авторизация | Регистрация

Торрент скачать бесплатно

  • support: webmaster@btracker.club
» » Как приручить дракона 3 / How to Train Your Dragon: The Hidden World (2019) BDRemux [H.264 / 1080p] торрент скачать бесплатно


    Как приручить дракона 3 / How to Train Your Dragon: The Hidden World (2019) BDRemux [H.264 / 1080p] торрент скачать бесплатно

    Дата: 19-04-2019, 05:00 | .torrent скачали: 0

    Как приручить дракона 3 / How to Train Your Dragon: The Hidden World (2019) BDRemux [H.264 / 1080p]Производство: США/DreamWorks Animation, Mad Hatter Entertainment
    Жанр: Мультфильм, фэнтези, боевик, комедия, приключения, семейный
    Режиссер: Дин ДеБлуа
    Продюсер: Бонни Арнольд, Майкл А. Коннолли, Даг Дэвисон

    Актеры
    Кейт Бланшетт, Джерард Батлер, Джона Хилл, Кит Харингтон, Кристен Уиг, Джей Барушель, Кристофер Минц-Плассе, Америка Феррера, Оулавюр Дарри Оулафссон, Ф. Мюррэй Абрахам, Крэйг Фергюсон, Джастин Руппл

    Описание

    Когда-то викинги жили в гармонии с драконами. В те времена они делили радость, горе… и последние штаны. Казалось, что так будет всегда, но появление загадочной Дневной Фурии изменило жизнь острова. И теперь Иккинг и Беззубик столкнутся с безжалостным охотником на драконов, жаждущим уничтожить все, что им дорого.

    Возраст: 6+ (зрителям, достигшим 6 лет)
    Рейтинг MPAA: PG (рекомендуется присутствие родителей)
    Дата мировой премьеры: 3 января 2019
    Дата российской премьеры: 21 февраля 2019, UPI
    Релиз от: MR Sergei
    Продолжительность: 01: 44: 06
    Качество видео: BDRemux 1080p
    Перевод: Дублированный, многоголосый
    Субтитры: Английские (Full, SDH)
    Видео: AVC/H.264, 1920x1080 (16: 9), ~28.2 Mbps, 23.976 fps
    Аудио #1: AC-3, 5.1, 48 KHz, 384 Kbps | Русский (Дубляж - iTunes)
    Аудио #2: AC-3, 2.0, 48 KHz, 192 Kbps | Русский (MVO - HDRezka Studio)
    Аудио #3: DTS-HD MA, 7.1, 48 kHz, 4041 kbps, 24-bit | Английский

    Общее
    Уникальный идентификатор : 247507270265881293951881542361858866689 (0xBA342A9454E3762DFF932616DFAA7E01)
    Полное имя : D: ФильмыKak.priruchit\'.drakona.3.2019.BDRemux.1080p.NNMClub.mkv
    Формат : Matroska
    Версия формата : Version 4
    Размер файла : 23, 9 Гбайт
    Продолжительность : 1 ч. 44 м.
    Режим общего битрейта : Переменный
    Общий поток : 32, 9 Мбит/сек
    Название фильма : Kak.priruchit\'.drakona.3.2019.BDRemux.1080p.NNMClub
    Дата кодирования : UTC 2019-04-18 04: 36: 15
    Программа кодирования : mkvmerge v33.1.0 (\'Primrose\') 64-bit
    Библиотека кодирования : libebml v1.3.7 + libmatroska v1.5.0
    Attachments : How-to-Train-Your-Dragon_3A-The-Hidden-World.jpg
    Видео
    Идентификатор : 1
    Формат : AVC
    Формат/Информация : Advanced Video Codec
    Профиль формата : High@L4.1
    Настройки формата : CABAC/4 Ref Frames
    Параметр CABAC формата : Да
    Параметр RefFrames формата : 4 кадра
    Идентификатор кодека : V_MPEG4/ISO/AVC
    Продолжительность : 1 ч. 44 м.
    Вид битрейта : Переменный
    Битрейт : 28, 2 Мбит/сек
    Максимальный битрейт : 30, 0 Мбит/сек
    Ширина : 1920 пикселей
    Высота : 1080 пикселей
    Соотношение сторон : 16: 9
    Режим частоты кадров : Постоянный
    Частота кадров : 23, 976 (24000/1001) кадра/сек
    Цветовое пространство : YUV
    Субдискретизация насыщенности : 4: 2: 0
    Битовая глубина : 8 бит
    Тип развёртки : Прогрессивная
    Бит/(Пиксели*Кадры) : 0.568
    Размер потока : 20, 5 Гбайт (86%)
    Язык : English
    Default : Да
    Forced : Нет
    Аудио #1
    Идентификатор : 2
    Формат : AC-3
    Формат/Информация : Audio Coding 3
    Коммерческое название : Dolby Digital
    Идентификатор кодека : A_AC3
    Продолжительность : 1 ч. 44 м.
    Вид битрейта : Постоянный
    Битрейт : 384 Кбит/сек
    Каналы : 6 каналов
    Channel layout : L R C LFE Ls Rs
    Частота : 48, 0 КГц
    Частота кадров : 31, 250 кадров/сек (1536 SPF)
    Битовая глубина : 16 бит
    Метод сжатия : С потерями
    Размер потока : 286 Мбайт (1%)
    Заголовок : Dub (iTunes)
    Язык : Russian
    ServiceKind/String : Complete Main
    Default : Да
    Forced : Нет
    Аудио #2
    Идентификатор : 3
    Формат : AC-3
    Формат/Информация : Audio Coding 3
    Коммерческое название : Dolby Digital
    Идентификатор кодека : A_AC3
    Продолжительность : 1 ч. 44 м.
    Вид битрейта : Постоянный
    Битрейт : 192 Кбит/сек
    Каналы : 2 канала
    Channel layout : L R
    Частота : 48, 0 КГц
    Частота кадров : 31, 250 кадров/сек (1536 SPF)
    Битовая глубина : 16 бит
    Метод сжатия : С потерями
    Размер потока : 143 Мбайт (1%)
    Заголовок : MVO (HDRezka Studio)
    Язык : Russian
    ServiceKind/String : Complete Main
    Default : Нет
    Forced : Нет
    Аудио #3
    Идентификатор : 4
    Формат : DTS XLL
    Формат/Информация : Digital Theater Systems
    Коммерческое название : DTS-HD Master Audio
    Идентификатор кодека : A_DTS
    Продолжительность : 1 ч. 44 м.
    Вид битрейта : Переменный
    Битрейт : 4041 Кбит/сек
    Каналы : 8 каналов
    Channel layout : C L R LFE Lb Rb Lss Rss
    Частота : 48, 0 КГц
    Частота кадров : 93, 750 кадра/сек (512 SPF)
    Битовая глубина : 24 бит
    Метод сжатия : Без потерь
    Размер потока : 2, 94 Гбайт (12%)
    Заголовок : Original
    Язык : English
    Default : Нет
    Forced : Нет
    Текст #1
    Идентификатор : 5
    Формат : UTF-8
    Идентификатор кодека : S_TEXT/UTF8
    Идентификатор кодека/Информация : UTF-8 Plain Text
    Продолжительность : 1 ч. 32 м.
    Битрейт : 46 бит/сек
    ElementCount : 1100
    Размер потока : 31, 5 Кбайт (0%)
    Заголовок : Full
    Язык : English
    Default : Нет
    Forced : Нет
    Текст #2
    Идентификатор : 6
    Формат : UTF-8
    Идентификатор кодека : S_TEXT/UTF8
    Идентификатор кодека/Информация : UTF-8 Plain Text
    Продолжительность : 1 ч. 32 м.
    Битрейт : 60 бит/сек
    ElementCount : 1546
    Размер потока : 41, 0 Кбайт (0%)
    Заголовок : SDH
    Язык : English
    Default : Нет
    Forced : Нет
    Меню
    00: 00: 00.000 : : Глава 01
    00: 05: 13.521 : : Глава 02
    00: 10: 26.834 : : Глава 03
    00: 14: 52.224 : : Глава 04
    00: 20: 33.065 : : Глава 05
    00: 24: 38.685 : : Глава 06
    00: 28: 40.885 : : Глава 07
    00: 31: 10.118 : : Глава 08
    00: 37: 35.127 : : Глава 09
    00: 44: 38.550 : : Глава 10
    00: 47: 53.579 : : Глава 11
    00: 53: 11.021 : : Глава 12
    00: 57: 36.286 : : Глава 13
    01: 01: 25.056 : : Глава 14
    01: 08: 55.923 : : Глава 15
    01: 14: 17.703 : : Глава 16
    01: 19: 31.141 : : Глава 17
    01: 23: 23.289 : : Глава 18
    01: 28: 24.716 : : Глава 19
    01: 33: 53.377 : : Глава 20

    File: D: ФильмыKak.priruchit\'.drakona.3.2019.BDRemux.1080p.NNMClub.mkv
    Duration: 01: 44: 06 (6246.1)
    Track #1: video
    lang: Unknown (1)
    codc: V_MPEG4/ISO/AVC - H264/AVC (22)
    reso: 1920x1080 - 16: 9
    fram: 23.976 fps
    rate: 28247 kbps (28247.2)
    dura: 01: 44: 06 (6246.03)
    size: 20.54 GB (22054106371)
    Track #2: audio (Dub (iTunes))
    lang: rus - Russian (15)
    codc: A_AC3 - AC3 (2)
    chan: 6 - 5.1 Surround
    samp: 48000 Hz
    rate: 384 kbps (384.04)
    dura: 01: 44: 05 (6245.09)
    size: 285.91 MB (299797262)
    Track #3: audio (MVO (HDRezka Studio))
    lang: rus - Russian (15)
    codc: A_AC3 - AC3 (2)
    chan: 2 - Stereo
    samp: 48000 Hz
    rate: 192 kbps (192.04)
    dura: 01: 44: 05 (6245.09)
    size: 142.97 MB (149915904)
    Track #4: audio (Original)
    lang: Unknown (1)
    codc: A_DTS - DTS (13)
    chan: 8 - 7.1 Surround
    samp: 48000 Hz
    rate: 4042 kbps (4041.76)
    dura: 01: 44: 06 (6246.05)
    size: 2.94 GB (3155625253)
    Track #5: subtitles (Full)
    lang: Unknown (1)
    type: S_TEXT/UTF8 - SRT (3)
    size: 31.50 KB (32251)
    Track #6: subtitles (SDH)
    lang: Unknown (1)
    type: S_TEXT/UTF8 - SRT (3)
    size: 40.98 KB (41962)
    Sizes: (check sanity)
    disk: 23.90 GB (25662935557)
    atts: 614.33 KB (629075)
    trac: 3.90 GB (4184682523) based on track size
    bitr: 23.90 GB (25659505621) based on bitrate
    tdif: 20.00 GB (21477623959) 83.69%
    bdif: 2.67 MB (2800860) 0.01%

    Скриншоты для ознакомления



    Все одноименные релизы в Клубе
    Время раздачи: 24/7 (до появления первых 3-5 скачавших)


    Онлайн видео Как приручить дракона 3



    Как приручить дракона 3/How to Train Your Dragon: The Hidden World (2019) BDRemux [H.264/1080p]
    Рейтинг →
     (голосов: 1, оценка 4/5, голосовать можно 1 раз )

    Другие торренты по теме:

  • Как приручить дракона 2 / How to Train Your Dragon 2 (2014) BDRip [1080p]
  • Как приручить дракона 2 / How to Train Your Dragon 2 (2014) Blu-ray 3D [1080p]
  • Как приручить дракона 2 / How to Train Your Dragon 2 (2014) BDRemux 3D [1080p] [3D / 2D] скачать через торрент бесплатно
  • Как приручить дракона 2 / How to Train Your Dragon 2 (2014) BDRip [1080p] 3D [Вертикальная анаморфная стереопара] скачать через торрент бесплатно
  • Как приручить дракона 2 / How to Train Your Dragon 2 (2014) BDRip [720p] скачать через торрент бесплатно
  • Как приручить дракона 2 / How to Train Your Dragon 2 (2014) Blu-ray [1080p] скачать через торрент бесплатно
  • Как приручить дракона 2 / How to Train Your Dragon 2 (2014) BDRemux [1080p]
  • Как приручить дракона 2 / How to Train Your Dragon 2 (2014) BDRip [H.264]


    • Комментарии (0):

      Информация

      Информация

        Посетители, находящиеся в группе Гости, не могут оставлять комментарии в данной новости.

        ↓ Меню




        ↓ Опрос

        Вы добавили сайт в закладки?
        Да
        Нет


        Top 10 за месяц (Мультфильмы)