.
Авторизация | Регистрация

Торрент скачать бесплатно

  • support: webmaster@btracker.club
» » Как приручить дракона 3 / How to Train Your Dragon: The Hidden World (2019) BDRip торрент скачать бесплатно


    Как приручить дракона 3 / How to Train Your Dragon: The Hidden World (2019) BDRip торрент скачать бесплатно

    Дата: 19-04-2019, 05:00 | .torrent скачали: 0

    Как приручить дракона 3 / How to Train Your Dragon: The Hidden World (2019) BDRipПроизводство: США, DreamWorks Animation, Mad Hatter Entertainment
    Жанр: Мультфильм, фэнтези, боевик, комедия, приключения, семейный
    Режиссер: Дин ДеБлуаa

    Описание

    Когда-то викинги жили в гармонии с драконами. В те времена они делили радость, горе… и последние штаны. Казалось, что так будет всегда, но появление загадочной Дневной Фурии изменило жизнь острова. И теперь Иккинг и Беззубик столкнутся с безжалостным охотником на драконов, жаждущим уничтожить все, что им дорого.

    Возраст: 6+ (зрителям, достигшим 6 лет)
    Рейтинг MPAA: PG (рекомендуется присутствие родителей)
    Дата мировой премьеры: 3 января 2019, ...
    Дата российской премьеры: 21 февраля 2019, UPI
    Релиз от: ExKinoRay
    Продолжительность: 01: 44: 06
    Качество видео: BDRip
    Перевод: Дублированный (iTunes)
    Видео: Xvid, 720x304, 1555 Kbps, 23.976 fps
    Аудио: AC3, 6 ch, 384 Kbps - Русский
    General
    Complete name : Kak.Priruchit.Drakona.3.2019.D.BDRip.1400Mb_ExKinoRay_by_Twi7ter.avi
    Format : AVI
    Format/Info : Audio Video Interleave
    File size : 1.41 GiB
    Duration : 1 h 44 min
    Overall bit rate : 1 946 kb/s
    Movie name : Kak.Priruchit.Drakona.3.2019.D.BDRip.1400Mb_ExKinoRay_by_Twi7ter/Kak.Priruchit.Drakona.3.2019.D.Line.BDRip.1400Mb_ExKinoRay_by_Twi7ter
    Director : Twi7ter/Twi7ter
    Genre : Fantasy/Action/Comedy/Family/Fantasy/Action/Comedy/Family
    Original source form/Name : Cartoon/Cartoon
    Video
    ID : 0
    Format : MPEG-4 Visual
    Format profile : Advanced Simple@L5
    Format settings : BVOP2/Custom Matrix
    Format settings, BVOP : 2
    Format settings, QPel : No
    Format settings, GMC : No warppoints
    Format settings, Matrix : Custom
    Codec ID : XVID
    Codec ID/Hint : XviD
    Duration : 1 h 44 min
    Bit rate : 1 555 kb/s
    Width : 720 pixels
    Height : 304 pixels
    Display aspect ratio : 2.35: 1
    Frame rate : 23.976 (24000/1001) FPS
    Color space : YUV
    Chroma subsampling : 4: 2: 0
    Bit depth : 8 bits
    Scan type : Progressive
    Compression mode : Lossy
    Bits/(Pixel*Frame) : 0.296
    Stream size : 1.13 GiB (80%)
    Writing library : XviD 73
    Audio
    ID : 1
    Format : AC-3
    Format/Info : Audio Coding 3
    Commercial name : Dolby Digital
    Codec ID : 2000
    Duration : 1 h 44 min
    Bit rate mode : Constant
    Bit rate : 384 kb/s
    Channel(s) : 6 channels
    Channel layout : L R C LFE Ls Rs
    Sampling rate : 48.0 kHz
    Frame rate : 31.250 FPS (1536 SPF)
    Bit depth : 16 bits
    Compression mode : Lossy
    Stream size : 286 MiB (20%)
    Alignment : Split accross interleaves
    Interleave, duration : 80 ms (1.92 video frames)
    Interleave, preload duration : 560 ms
    Service kind : Complete Main

    Скриншоты для ознакомления



    Все одноименные релизы в Клубе
    Время раздачи: 24/7 (круглосуточно) (до появления первых 3-5 скачавших)


    Онлайн видео Как приручить дракона 3



    Как приручить дракона 3/How to Train Your Dragon: The Hidden World (2019) BDRip
    Рейтинг →
     (голосов: 1, оценка 5/5, голосовать можно 1 раз )

    Другие торренты по теме:

  • Как приручить дракона 2 / How to Train Your Dragon 2 (2014) BDRip [1080p]
  • Как приручить дракона 2 / How to Train Your Dragon 2 (2014) Blu-ray 3D [1080p]
  • Как приручить дракона 2 / How to Train Your Dragon 2 (2014) BDRemux 3D [1080p] [3D / 2D] скачать через торрент бесплатно
  • Как приручить дракона 2 / How to Train Your Dragon 2 (2014) BDRip [1080p] 3D [Вертикальная анаморфная стереопара] скачать через торрент бесплатно
  • Как приручить дракона 2 / How to Train Your Dragon 2 (2014) BDRip [720p] скачать через торрент бесплатно
  • Как приручить дракона 2 / How to Train Your Dragon 2 (2014) Blu-ray [1080p] скачать через торрент бесплатно
  • Как приручить дракона 2 / How to Train Your Dragon 2 (2014) BDRemux [1080p]
  • Как приручить дракона 2 / How to Train Your Dragon 2 (2014) BDRip [H.264]


    • Комментарии (0):

      Информация

      Информация

        Посетители, находящиеся в группе Гости, не могут оставлять комментарии в данной новости.

        ↓ Меню




        ↓ Опрос

        Вы добавили сайт в закладки?
        Да
        Нет


        Top 10 за месяц (Мультфильмы)