.
Авторизация | Регистрация

Торрент скачать бесплатно

  • support: webmaster@btracker.club
» » Как приручить дракона 3 / How to Train Your Dragon: The Hidden World (2019) BDRip [H.264 / 720p] торрент скачать бесплатно


    Как приручить дракона 3 / How to Train Your Dragon: The Hidden World (2019) BDRip [H.264 / 720p] торрент скачать бесплатно

    Дата: 19-04-2019, 05:00 | .torrent скачали: 0

    Как приручить дракона 3 / How to Train Your Dragon: The Hidden World (2019) BDRip [H.264 / 720p]Производство: США, DreamWorks Animation, Mad Hatter Entertainment
    Жанр: Мультфильм, фэнтези, боевик, комедия, приключения, семейный
    Режиссер: Дин ДеБлуаa

    Описание

    Когда-то викинги жили в гармонии с драконами. В те времена они делили радость, горе… и последние штаны. Казалось, что так будет всегда, но появление загадочной Дневной Фурии изменило жизнь острова. И теперь Иккинг и Беззубик столкнутся с безжалостным охотником на драконов, жаждущим уничтожить все, что им дорого.

    Возраст: 6+ (зрителям, достигшим 6 лет)
    Рейтинг MPAA: PG (рекомендуется присутствие родителей)
    Дата мировой премьеры: 3 января 2019, ...
    Дата российской премьеры: 21 февраля 2019, UPI
    Релиз от: Селезень
    Продолжительность: 01: 44: 06
    Качество видео: BDRip
    Перевод: Дублированный (iTunes), Профессиональный многоголосый (HDRezka)
    Видео: AVC/H.264, 1280x544, 5675 Kbps, 23.976 fps
    Аудио: AC3, 6 ch, 384 Kbps - Русский | iTunes DUB
    Аудио: AC3, 2 ch, 192 Kbps - Русский | HDRezka MVO
    Аудио: AC3, 6 ch, 448 Kbps - Оригинал
    Субтитры: Английские
    General
    Unique ID : 298875989100499263107649271119244751118 (0xE0D96BF4F86700D79E5090C5F9ACF10E)
    Complete name : How.to.Train.Your.Dragon.The.Hidden.World.2019.D.BDRip.720p.seleZen.mkv
    Format : Matroska
    Format version : Version 4
    File size : 4.87 GiB
    Duration : 1 h 44 min
    Overall bit rate : 6 701 kb/s
    Movie name : How to Train Your Dragon The Hidden World 2019 from селезень
    Encoded date : UTC 2019-04-17 18: 38: 24
    Writing application : mkvmerge v32.0.0 (\'Astral Progressions\') 64-bit
    Writing library : libebml v1.3.7 + libmatroska v1.5.0
    Video
    ID : 1
    Format : AVC
    Format/Info : Advanced Video Codec
    Format profile : High@L4.1
    Format settings : CABAC/12 Ref Frames
    Format settings, CABAC : Yes
    Format settings, ReFrames : 12 frames
    Codec ID : V_MPEG4/ISO/AVC
    Duration : 1 h 44 min
    Bit rate : 5 675 kb/s
    Width : 1 280 pixels
    Height : 544 pixels
    Display aspect ratio : 2.35: 1
    Frame rate mode : Constant
    Frame rate : 23.976 FPS
    Color space : YUV
    Chroma subsampling : 4: 2: 0
    Bit depth : 8 bits
    Scan type : Progressive
    Bits/(Pixel*Frame) : 0.340
    Stream size : 4.13 GiB (85%)
    Title : CtrlHD
    Writing library : x264 core 152 r2851kMod ba24899
    Encoding settings : cabac=1/ref=12/deblock=1: -3: -3/analyse=0x3: 0x133/me=tesa/subme=10/psy=1/fade_compensate=0.00/psy_rd=1.05: 0.00/mixed_ref=1/me_range=16/chroma_me=1/trellis=2/8x8dct=1/cqm=0/deadzone=21, 11/fast_pskip=0/chroma_qp_offset=-2/threads=9/lookahead_threads=1/sliced_threads=0/nr=0/decimate=0/interlaced=0/bluray_compat=0/constrained_intra=0/bframes=8/b_pyramid=2/b_adapt=2/b_bias=0/direct=3/weightb=1/open_gop=0/weightp=2/keyint=250/keyint_min=23/scenecut=40/intra_refresh=0/rc_lookahead=60/rc=crf/mbtree=0/crf=16.0000/qcomp=0.80/qpmin=0/qpmax=69/qpstep=4/vbv_maxrate=15000/vbv_bufsize=15000/crf_max=0.0/nal_hrd=none/filler=0/ip_ratio=1.30/pb_ratio=1.20/aq=3: 0.90
    Language : English
    Default : Yes
    Forced : No
    Audio #1
    ID : 2
    Format : AC-3
    Format/Info : Audio Coding 3
    Commercial name : Dolby Digital
    Codec ID : A_AC3
    Duration : 1 h 44 min
    Bit rate mode : Constant
    Bit rate : 384 kb/s
    Channel(s) : 6 channels
    Channel layout : L R C LFE Ls Rs
    Sampling rate : 48.0 kHz
    Frame rate : 31.250 FPS (1536 SPF)
    Bit depth : 16 bits
    Compression mode : Lossy
    Stream size : 286 MiB (6%)
    Title : Dub iTunes
    Language : Russian
    Service kind : Complete Main
    Default : Yes
    Forced : Yes
    Audio #2
    ID : 3
    Format : AC-3
    Format/Info : Audio Coding 3
    Commercial name : Dolby Digital
    Codec ID : A_AC3
    Duration : 1 h 44 min
    Bit rate mode : Constant
    Bit rate : 192 kb/s
    Channel(s) : 2 channels
    Channel layout : L R
    Sampling rate : 48.0 kHz
    Frame rate : 31.250 FPS (1536 SPF)
    Bit depth : 16 bits
    Compression mode : Lossy
    Stream size : 143 MiB (3%)
    Title : MVO HDRezka Studio
    Language : Russian
    Service kind : Complete Main
    Default : No
    Forced : No
    Audio #3
    ID : 4
    Format : AC-3
    Format/Info : Audio Coding 3
    Commercial name : Dolby Digital
    Codec ID : A_AC3
    Duration : 1 h 44 min
    Bit rate mode : Constant
    Bit rate : 448 kb/s
    Channel(s) : 6 channels
    Channel layout : L R C LFE Ls Rs
    Sampling rate : 48.0 kHz
    Frame rate : 31.250 FPS (1536 SPF)
    Bit depth : 16 bits
    Compression mode : Lossy
    Stream size : 334 MiB (7%)
    Title : Original
    Language : English
    Service kind : Complete Main
    Default : No
    Forced : No
    Text
    ID : 5
    Format : UTF-8
    Codec ID : S_TEXT/UTF8
    Codec ID/Info : UTF-8 Plain Text
    Duration : 1 h 43 min
    Bit rate : 62 b/s
    Count of elements : 1792
    Stream size : 48.0 KiB (0%)
    Title : SDH
    Language : English
    Default : No
    Forced : No
    Menu
    00: 00: 00.000 : en: Chapter 1
    00: 05: 13.521 : en: Chapter 2
    00: 10: 26.834 : en: Chapter 3
    00: 14: 52.224 : en: Chapter 4
    00: 20: 33.065 : en: Chapter 5
    00: 24: 38.685 : en: Chapter 6
    00: 28: 40.885 : en: Chapter 7
    00: 31: 10.118 : en: Chapter 8
    00: 37: 35.127 : en: Chapter 9
    00: 44: 38.550 : en: Chapter 10
    00: 47: 53.579 : en: Chapter 11
    00: 53: 11.021 : en: Chapter 12
    00: 57: 36.286 : en: Chapter 13
    01: 01: 25.056 : en: Chapter 14
    01: 08: 55.923 : en: Chapter 15
    01: 14: 17.703 : en: Chapter 16
    01: 19: 31.141 : en: Chapter 17
    01: 23: 23.289 : en: Chapter 18
    01: 28: 24.716 : en: Chapter 19
    01: 33: 53.377 : en: Chapter 20

    Скриншоты для ознакомления



    Все одноименные релизы в Клубе
    Время раздачи: 24/7 (мультитрекер) (до появления первых 3-5 скачавших)


    Онлайн видео Как приручить дракона 3



    Как приручить дракона 3/How to Train Your Dragon: The Hidden World (2019) BDRip [H.264/720p]
    Рейтинг →
     (голосов: 1, оценка 3/5, голосовать можно 1 раз )

    Другие торренты по теме:

  • Как приручить дракона 2 / How to Train Your Dragon 2 (2014) BDRip [1080p]
  • Как приручить дракона 2 / How to Train Your Dragon 2 (2014) Blu-ray 3D [1080p]
  • Как приручить дракона 2 / How to Train Your Dragon 2 (2014) BDRemux 3D [1080p] [3D / 2D] скачать через торрент бесплатно
  • Как приручить дракона 2 / How to Train Your Dragon 2 (2014) BDRip [1080p] 3D [Вертикальная анаморфная стереопара] скачать через торрент бесплатно
  • Как приручить дракона 2 / How to Train Your Dragon 2 (2014) BDRip [720p] скачать через торрент бесплатно
  • Как приручить дракона 2 / How to Train Your Dragon 2 (2014) Blu-ray [1080p] скачать через торрент бесплатно
  • Как приручить дракона 2 / How to Train Your Dragon 2 (2014) BDRemux [1080p]
  • Как приручить дракона 2 / How to Train Your Dragon 2 (2014) BDRip [H.264]


    • Комментарии (0):

      Информация

      Информация

        Посетители, находящиеся в группе Гости, не могут оставлять комментарии в данной новости.

        ↓ Меню




        ↓ Опрос

        Вы добавили сайт в закладки?
        Да
        Нет


        Top 10 за месяц (Мультфильмы)