.
Авторизация | Регистрация

Торрент скачать бесплатно

  • support: webmaster@btracker.club
» » Сказание о храбром витязе Фэт-Фрумосе (1977) DVDRip (серии 1-2 из 2) торрент скачать бесплатно


    Сказание о храбром витязе Фэт-Фрумосе (1977) DVDRip (серии 1-2 из 2) торрент скачать бесплатно

    Дата: 19-04-2019, 05:00 | .torrent скачали: 0

    Сказание о храбром витязе Фэт-Фрумосе (1977) DVDRip (серии 1-2 из 2)Производство: СССР/Молдова-фильм
    Жанр: Детский, фэнтези, приключения
    Режиссер: Влад Иовицэ, Николай Есиненку

    Актеры
    Владимир Антоник, Броне Брашките, Петр Баракчи, Василе Зубку, Евгения Тудорашку, Констанца Тырцэу, Ион Унгуряну, Василий Тебырце, Владимир Шакало, Геннадий Четвериков

    Описание

    По мотивам молдавских и румынских народных сказок. В селе рождается мальчик, который растет не по дням, а по часам. Это богатырь Фэт-Фрумос. Три раза он слышит человеческий крик и не может не поспешить на помощь. Многое придется ему пережить в царстве злодея Лаура-Балаура, прежде чем добро победит зло…

    Релиз от: Алехаndr
    Продолжительность: 01: 03: 09 + 01: 03: 09
    Качество видео: DVDRip
    Субтитры: Отсутствуют
    Видео: Xvid, 720x538 (4: 3), ~1450 Kbps
    Аудио: MP3, 2 ch, 192 Kbps

    Общее
    Полное имя : D: Сказание о храбром витязе Фэт-Фрумосе (1977).by.АлехаndrСерия 1.by.Алехаndr.avi
    Формат : AVI
    Формат/Информация : Audio Video Interleave
    Размер файла : 748 Мбайт
    Продолжительность : 1 ч. 3 м.
    Общий поток : 1656 Кбит/сек
    Программа кодирования : Lavf58.12.100
    Видео
    Идентификатор : 0
    Формат : xvid
    Идентификатор кодека : xvid
    Продолжительность : 1 ч. 3 м.
    Битрейт : 1451 Кбит/сек
    Ширина : 720 пикселей
    Высота : 538 пикселей
    Соотношение сторон : 4: 3
    Частота кадров : 25, 000 кадров/сек
    Тип развёртки : Прогрессивная
    Бит/(Пиксели*Кадры) : 0.150
    Размер потока : 655 Мбайт (88%)
    Аудио
    Идентификатор : 1
    Формат : MPEG Audio
    Версия формата : Version 1
    Профиль формата : Layer 3
    Настройки формата : Joint stereo/MS Stereo
    Идентификатор кодека : 55
    Идентификатор кодека/Подсказка : MP3
    Продолжительность : 1 ч. 3 м.
    Вид битрейта : Постоянный
    Битрейт : 192 Кбит/сек
    Каналы : 2 канала
    Частота : 48, 0 КГц
    Метод сжатия : С потерями
    Размер потока : 86, 7 Мбайт (12%)
    Выравнивание : Соединение по промежуткам
    Продолжительность промежутка : 24 мс. (0, 60 видеокадр)
    Время предзагрузки промежутка : 24 мс.
    Общее
    Полное имя : D: Сказание о храбром витязе Фэт-Фрумосе (1977).by.АлехаndrСерия 2.by.Алехаndr.avi
    Формат : AVI
    Формат/Информация : Audio Video Interleave
    Размер файла : 750 Мбайт
    Продолжительность : 1 ч. 3 м.
    Общий поток : 1656 Кбит/сек
    Программа кодирования : Lavf58.12.100
    Видео
    Идентификатор : 0
    Формат : xvid
    Идентификатор кодека : xvid
    Продолжительность : 1 ч. 3 м.
    Битрейт : 1451 Кбит/сек
    Ширина : 720 пикселей
    Высота : 538 пикселей
    Соотношение сторон : 4: 3
    Частота кадров : 25, 000 кадров/сек
    Тип развёртки : Прогрессивная
    Бит/(Пиксели*Кадры) : 0.150
    Размер потока : 657 Мбайт (88%)
    Аудио
    Идентификатор : 1
    Формат : MPEG Audio
    Версия формата : Version 1
    Профиль формата : Layer 3
    Настройки формата : Joint stereo/MS Stereo
    Идентификатор кодека : 55
    Идентификатор кодека/Подсказка : MP3
    Продолжительность : 1 ч. 3 м.
    Вид битрейта : Постоянный
    Битрейт : 192 Кбит/сек
    Каналы : 2 канала
    Частота : 48, 0 КГц
    Метод сжатия : С потерями
    Размер потока : 87, 0 Мбайт (12%)
    Выравнивание : Соединение по промежуткам
    Продолжительность промежутка : 24 мс. (0, 60 видеокадр)
    Время предзагрузки промежутка : 24 мс.

    Скриншоты для ознакомления



    Все одноименные релизы в Клубе
    Время раздачи: 24/7 (круглосуточно) (до появления первых 3-5 скачавших)


    Онлайн видео Сказание о храбром витязе Фэт



    Сказание о храбром витязе Фэт-Фрумосе (1977) DVDRip (серии 1-2 из 2)
    Рейтинг →
     (голосов: 1, оценка 3/5, голосовать можно 1 раз )

    Другие торренты по теме:

  • Сказание о Рустаме (1971) VHSRip [H.264] скачать через торрент бесплатно
  • Сказание о Сиявуше (1976) VHSRip [H.264] скачать через торрент бесплатно
  • Kaguya-hime no Monogatari / The Tale of the Princess Kaguya / Сказание о принцессе Кагуя (2013, MV) BDRip 720p raw скачать через торрент бесплатно
  • Arslan Senki (2015) | The Heroic Legend of Arslan (2015) | Сказание об Арслане [ТВ] [2015, TV, 1 из >13 эп.] HDTVRip 720p raw скачать через торрент бесплатно
  • Сказание о любви (Лейли и Меджнун) (1962) VHSRip скачать через торрент бесплатно
  • Сказание о Вёлунде (1979 / 2013) [WavPack] скачать через торрент бесплатно
  • Алексей Черкасов, Полина Москвитина | Чёрный тополь [Сказание о людях Тайги - Книга 3] (2013) [m4b|AAC]
  • Алексей Черкасов, Полина Москвитина | Конь рыжий [Сказание о людях Тайги - Книга 2] (2013) [m4b|AAC]


    • Комментарии (0):

      Информация

      Информация

        Посетители, находящиеся в группе Гости, не могут оставлять комментарии в данной новости.

        ↓ Меню




        ↓ Опрос

        Вы добавили сайт в закладки?
        Да
        Нет


        Top 10 за месяц (Мультфильмы)