.
Авторизация | Регистрация

Торрент скачать бесплатно

  • support: webmaster@btracker.club
» » Человек-паук: Через вселенные / Spider-Man: Into the Spider-Verse (2018) BDRip [H.264 / 1080p] [hand made 60 fps] торрент скачать бесплатно


    Человек-паук: Через вселенные / Spider-Man: Into the Spider-Verse (2018) BDRip [H.264 / 1080p] [hand made 60 fps] торрент скачать бесплатно

    Дата: 19-04-2019, 05:00 | .torrent скачали: 0

    Человек-паук: Через вселенные / Spider-Man: Into the Spider-Verse (2018) BDRip [H.264 / 1080p] [hand made 60 fps]Производство: США, Sony Pictures Entertainment (SPE), Columbia Pictures Corporation, Marvel Entertainment
    Жанр: Анимация, Фантастика, Боевик, Комедия
    Режиссер: Боб Персичетти, Питер Рэмзи, Родни Ротман

    Актеры
    Шамеик Мур, Джейк Джонсон, Хейли Стайнфелд, Махершала Али, Брайан Тайри Генри, Лили Томлин, Луна Лорен Велес, Зои Кравиц, Джон Малэйни, Кимико Гленн

    Описание

    Мы всё знаем о Питере Паркере. Он спас город, влюбился, а потом спасал город снова и снова… Но все это — в нашем измерении. А что если в результате работы гигантского коллайдера откроется окно из одного измерения в другое? Найдется ли в нем свой Человек-паук? И как он будет выглядеть? Приготовьтесь к тому, что в разных вселенных могут быть разные Люди-пауки и однажды им придется собраться вместе для борьбы с почти непобедимым врагом.

    Возраст: 6+ (зрителям, достигшим 6 лет)
    Рейтинг MPAA: PG (рекомендуется присутствие родителей)
    Дата мировой премьеры: 6 декабря 2018
    Дата российской премьеры: 13 декабря 2018, WDSSPR
    Дата выхода DVD/Blu-ray релиза: 11 марта 2019, Sony Pictures Home Entertainment
    Релиз от: Талямба
    Продолжительность: 01: 56: 50
    Качество видео: BDRip
    Перевод: Дублированный
    Субтитры: Русские, Украинские, Английские
    Видео: AVC/H.264, 1920x800, ~20.0 Mbps
    Аудио: AC3, 6 ch, 384 Kbps - Русский
    Аудио: DTS, 6 ch, 1509 Kbps - Английский

    General
    Unique ID : 78663960560087330096709341171596743601 (0x3B2E20B22BD43F6873C030AC845553B1)
    Complete name : D: КиноЧеловек-паук - Через вселенные (1080p).mkv
    Format : Matroska
    Format version : Version 4
    File size : 17.9 GiB
    Duration : 1 h 56 min
    Overall bit rate : 21.9 Mb/s
    Movie name : Человек-паук: Через вселенные/Spider-Man: Into the Spider-Verse
    Encoded date : UTC 2019-03-12 20: 20: 06
    Writing application : mkvmerge v22.0.0 (\'At The End Of The World\') 64-bit
    Writing library : libebml v1.3.5 + libmatroska v1.4.8
    Video
    ID : 1
    Format : AVC
    Format/Info : Advanced Video Codec
    Format profile : High@L4.1
    Format settings : CABAC/5 Ref Frames
    Format settings, CABAC : Yes
    Format settings, RefFrames : 5 frames
    Codec ID : V_MPEG4/ISO/AVC
    Duration : 1 h 56 min
    Bit rate : 20.0 Mb/s
    Width : 1 920 pixels
    Height : 800 pixels
    Display aspect ratio : 2.40: 1
    Frame rate mode : Constant
    Frame rate : 59.940 (60000/1001) FPS
    Color space : YUV
    Chroma subsampling : 4: 2: 0
    Bit depth : 8 bits
    Scan type : Progressive
    Bits/(Pixel*Frame) : 0.217
    Stream size : 16.3 GiB (91%)
    Title : Талямба: 60-fps.org
    Writing library : x264 core 146 r2538 121396c
    Encoding settings : cabac=1/ref=5/deblock=1: 1: 1/analyse=0x3: 0x113/me=umh/subme=9/psy=1/psy_rd=0.40: 0.00/mixed_ref=1/me_range=32/chroma_me=1/trellis=2/8x8dct=1/cqm=0/deadzone=21, 11/fast_pskip=1/chroma_qp_offset=-2/threads=12/lookahead_threads=2/sliced_threads=0/nr=0/decimate=1/interlaced=0/bluray_compat=0/constrained_intra=0/bframes=5/b_pyramid=2/b_adapt=2/b_bias=0/direct=3/weightb=1/open_gop=0/weightp=2/keyint=600/keyint_min=60/scenecut=40/intra_refresh=0/rc_lookahead=60/rc=2pass/mbtree=1/bitrate=20000/ratetol=1.0/qcomp=0.60/qpmin=0/qpmax=69/qpstep=4/cplxblur=20.0/qblur=0.5/vbv_maxrate=50000/vbv_bufsize=50000/nal_hrd=none/filler=0/ip_ratio=1.40/aq=1: 0.60
    Language : English
    Default : Yes
    Forced : No
    Audio #1
    ID : 2
    Format : AC-3
    Format/Info : Audio Coding 3
    Commercial name : Dolby Digital
    Codec ID : A_AC3
    Duration : 1 h 56 min
    Bit rate mode : Constant
    Bit rate : 384 kb/s
    Channel(s) : 6 channels
    Channel layout : L R C LFE Ls Rs
    Sampling rate : 48.0 kHz
    Frame rate : 31.250 FPS (1536 SPF)
    Bit depth : 16 bits
    Compression mode : Lossy
    Stream size : 321 MiB (2%)
    Title : Dub iTunes
    Language : Russian
    Service kind : Complete Main
    Default : Yes
    Forced : Yes
    Audio #2
    ID : 3
    Format : DTS
    Format/Info : Digital Theater Systems
    Codec ID : A_DTS
    Duration : 1 h 56 min
    Bit rate mode : Constant
    Bit rate : 1 509 kb/s
    Channel(s) : 6 channels
    Channel layout : C L R Ls Rs LFE
    Sampling rate : 48.0 kHz
    Frame rate : 93.750 FPS (512 SPF)
    Bit depth : 16 bits
    Compression mode : Lossy
    Stream size : 1.23 GiB (7%)
    Title : Original
    Language : English
    Default : No
    Forced : No
    Text #1
    ID : 4
    Format : UTF-8
    Codec ID : S_TEXT/UTF8
    Codec ID/Info : UTF-8 Plain Text
    Duration : 1 h 55 min
    Bit rate : 82 b/s
    Count of elements : 1467
    Stream size : 70.3 KiB (0%)
    Title : Full iTunes
    Language : Russian
    Default : No
    Forced : No
    Text #2
    ID : 5
    Format : UTF-8
    Codec ID : S_TEXT/UTF8
    Codec ID/Info : UTF-8 Plain Text
    Duration : 1 h 55 min
    Bit rate : 81 b/s
    Count of elements : 1468
    Stream size : 68.9 KiB (0%)
    Title : Full iTunes
    Language : Ukrainian
    Default : No
    Forced : No
    Text #3
    ID : 6
    Format : UTF-8
    Codec ID : S_TEXT/UTF8
    Codec ID/Info : UTF-8 Plain Text
    Duration : 1 h 55 min
    Bit rate : 54 b/s
    Count of elements : 1389
    Stream size : 46.4 KiB (0%)
    Title : Full iTunes
    Language : English
    Default : No
    Forced : No
    Menu
    00: 00: 00.000 : en: Chapter 01
    00: 09: 03.793 : en: Chapter 02
    00: 14: 04.719 : en: Chapter 03
    00: 18: 51.714 : en: Chapter 04
    00: 29: 39.027 : en: Chapter 05
    00: 34: 14.636 : en: Chapter 06
    00: 40: 34.432 : en: Chapter 07
    00: 44: 22.827 : en: Chapter 08
    00: 48: 06.884 : en: Chapter 09
    00: 58: 45.855 : en: Chapter 10
    01: 06: 04.460 : en: Chapter 11
    01: 09: 55.483 : en: Chapter 12
    01: 20: 00.003 : en: Chapter 13
    01: 24: 54.923 : en: Chapter 14
    01: 33: 33.399 : en: Chapter 15
    01: 55: 26.920 : en: Chapter 16

    Скриншоты для ознакомления



    Все одноименные релизы в Клубе
    Время раздачи: до появления первых 3-5 скачавших (до появления первых 3-5 скачавших)


    Онлайн видео Человек-паук: Через вселенные



    Человек-паук: Через вселенные/Spider-Man: Into the Spider-Verse (2018) BDRip [H.264/1080p] [hand made 60 fps]
    Рейтинг →
     (голосов: 1, оценка 3/5, голосовать можно 1 раз )

    Другие торренты по теме:

  • Человек-паук: Через вселенные / Spider-Man: Into the Spider-Verse (2018) CamRip [AD]
  • Человек-паук: Через вселенные / Spider-Man: Into the Spider-Verse (2018) WEBRip
  • Человек-паук: Через вселенные / Spider-Man: Into the Spider-Verse (2018) WEB-DL [H.264 / 1080p-LQ]
  • Человек-паук: Через вселенные / Spider-Man: Into the Spider-Verse (2018) UHDRip [H.265 / 2160p-LQ] [10-bit]
  • Человек-паук: Через вселенные / Spider-Man: Into the Spider-Verse (2018) UHD BDRemux [H.265 / 2160p] [4K, HDR, 10-bit]
  • Человек-паук: Через вселенные / Spider-Man: Into the Spider-Verse (2018) BDRip [H.264 / 1080p]
  • Человек-паук: Через вселенные / Spider-Man: Into the Spider-Verse (2018) BDRip [H.264 / 720p]
  • Человек-паук: Через вселенные / Spider-Man: Into the Spider-Verse (2018) HDRip


    • Комментарии (0):

      Информация

      Информация

        Посетители, находящиеся в группе Гости, не могут оставлять комментарии в данной новости.

        ↓ Меню




        ↓ Опрос

        Вы добавили сайт в закладки?
        Да
        Нет


        Top 10 за месяц (Мультфильмы)