.
Авторизация | Регистрация

Торрент скачать бесплатно

  • support: webmaster@btracker.club
» » Рождённый стать королём / The Kid Who Would Be King (2019) WEB-DL [H.264 / 1080p-LQ] торрент скачать бесплатно


    Рождённый стать королём / The Kid Who Would Be King (2019) WEB-DL [H.264 / 1080p-LQ] торрент скачать бесплатно

    Дата: 19-04-2019, 05:00 | .torrent скачали: 0

    Рождённый стать королём / The Kid Who Would Be King (2019) WEB-DL [H.264 / 1080p-LQ]Производство: Великобритания, США/Big Talk Productions, TSG Entertainment, Working Title Films
    Жанр: Фэнтези, Боевик, Приключения, Семейный
    Режиссер: Джо Корниш

    Актеры
    Луис Эшборн Серкис, Денис Гоф, Дин Чауму, Том Тейлор, Рианна Доррис, Нэйтан Стюарт-Джарретт, Нома Думезвени, Ребекка Фергюсон, Марк Боннар, Энгус Имри ...

    Описание

    Повседневные проблемы 12-летнего Алекса отходят на второй план после того, как он находит легендарный Экскалибур. И теперь, когда меч короля Артура оказывается в руках самого неудачливого подростка в Британии, начинается грандиозное приключение, в ходе которого Алекс и его друзья должны остановить злую средневековую волшебницу Моргану и не дать ей уничтожить мир.

    Возраст: 6+ (зрителям, достигшим 6 лет)
    Рейтинг MPAA: PG (рекомендуется присутствие родителей)
    Дата мировой премьеры: 16 января 2019, ...
    Дата российской премьеры: 14 марта 2019, Двадцатый Век Фокс СНГ
    Релиз от: ELEKTRI4KA
    Продолжительность: 02: 00: 08
    Качество видео: WEB-DL
    Перевод: Дублированный (iTunes)
    Субтитры: Русские (Forced, Full), Украинские (Forced, Full), Английские (Full)
    Видео: AVC/H.264, 1920x804, 4 540 Kbps, 23.976 fps
    Аудио 1: AC3, 6 ch, 384 Kbps - Русский (DUB)
    Аудио 2: AAC, 2 ch, 126 Kbps - Украинский (DUB)
    Аудио 3: AC3, 6 ch, 384 Kbps - Английский (Оригинал)
    General
    Unique ID : 184156602962490716205819478453538716947 (0x8A8B45883F25C81882DF1CBFF8D6FD13)
    Complete name : The.Kid.Who.Would.Be.King.2019.WEB-DL.1080p.ELEKTRI4KA.UNIONGANG.mkv
    Format : Matroska
    Format version : Version 4
    File size : 4.58 GiB
    Duration : 2 h 0 min
    Overall bit rate : 5 433 kb/s
    Encoded date : UTC 2019-04-18 18: 45: 28
    Writing application : mkvmerge v28.0.0 (\'Voice In My Head\') 64-bit
    Writing library : libebml v1.3.6 + libmatroska v1.4.9
    Video
    ID : 1
    Format : AVC
    Format/Info : Advanced Video Codec
    Format profile : High@L4
    Format settings : CABAC/5 Ref Frames
    Format settings, CABAC : Yes
    Format settings, ReFrames : 5 frames
    Codec ID : V_MPEG4/ISO/AVC
    Duration : 2 h 0 min
    Bit rate : 4 540 kb/s
    Width : 1 920 pixels
    Height : 804 pixels
    Display aspect ratio : 2.40: 1
    Frame rate mode : Constant
    Frame rate : 23.976 FPS
    Color space : YUV
    Chroma subsampling : 4: 2: 0
    Bit depth : 8 bits
    Scan type : Progressive
    Bits/(Pixel*Frame) : 0.123
    Stream size : 3.83 GiB (84%)
    Language : English
    Default : Yes
    Forced : No
    Color range : Limited
    Color primaries : BT.709
    Transfer characteristics : BT.709
    Matrix coefficients : BT.709
    Audio #1
    ID : 2
    Format : AC-3
    Format/Info : Audio Coding 3
    Commercial name : Dolby Digital
    Codec ID : A_AC3
    Duration : 2 h 0 min
    Bit rate mode : Constant
    Bit rate : 384 kb/s
    Channel(s) : 6 channels
    Channel layout : L R C LFE Ls Rs
    Sampling rate : 48.0 kHz
    Frame rate : 31.250 FPS (1536 SPF)
    Bit depth : 16 bits
    Compression mode : Lossy
    Stream size : 330 MiB (7%)
    Language : Russian
    Service kind : Complete Main
    Default : Yes
    Forced : No
    Audio #2
    ID : 3
    Format : AAC LC
    Format/Info : Advanced Audio Codec Low Complexity
    Codec ID : A_AAC-2
    Duration : 2 h 0 min
    Bit rate : 126 kb/s
    Channel(s) : 2 channels
    Channel layout : L R
    Sampling rate : 48.0 kHz
    Frame rate : 46.875 FPS (1024 SPF)
    Compression mode : Lossy
    Stream size : 109 MiB (2%)
    Language : Ukrainian
    Default : No
    Forced : No
    Audio #3
    ID : 4
    Format : AC-3
    Format/Info : Audio Coding 3
    Commercial name : Dolby Digital
    Codec ID : A_AC3
    Duration : 2 h 0 min
    Bit rate mode : Constant
    Bit rate : 384 kb/s
    Channel(s) : 6 channels
    Channel layout : L R C LFE Ls Rs
    Sampling rate : 48.0 kHz
    Frame rate : 31.250 FPS (1536 SPF)
    Bit depth : 16 bits
    Compression mode : Lossy
    Stream size : 330 MiB (7%)
    Language : English
    Service kind : Complete Main
    Default : No
    Forced : No
    Text #1
    ID : 5
    Format : UTF-8
    Codec ID : S_TEXT/UTF8
    Codec ID/Info : UTF-8 Plain Text
    Duration : 1 h 59 min
    Bit rate : 1 b/s
    Count of elements : 31
    Stream size : 1.20 KiB (0%)
    Title : FORCED
    Language : Russian
    Default : Yes
    Forced : Yes
    Text #2
    ID : 6
    Format : UTF-8
    Codec ID : S_TEXT/UTF8
    Codec ID/Info : UTF-8 Plain Text
    Duration : 1 h 59 min
    Bit rate : 86 b/s
    Count of elements : 1604
    Stream size : 75.3 KiB (0%)
    Language : Russian
    Default : No
    Forced : No
    Text #3
    ID : 7
    Format : UTF-8
    Codec ID : S_TEXT/UTF8
    Codec ID/Info : UTF-8 Plain Text
    Duration : 1 h 59 min
    Bit rate : 0 b/s
    Count of elements : 17
    Stream size : 642 Bytes (0%)
    Title : FORCED
    Language : Ukrainian
    Default : No
    Forced : No
    Text #4
    ID : 8
    Format : UTF-8
    Codec ID : S_TEXT/UTF8
    Codec ID/Info : UTF-8 Plain Text
    Duration : 1 h 59 min
    Bit rate : 81 b/s
    Count of elements : 1604
    Stream size : 71.2 KiB (0%)
    Language : Ukrainian
    Default : No
    Forced : No
    Text #5
    ID : 9
    Format : UTF-8
    Codec ID : S_TEXT/UTF8
    Codec ID/Info : UTF-8 Plain Text
    Duration : 1 h 59 min
    Bit rate : 51 b/s
    Count of elements : 1640
    Stream size : 45.2 KiB (0%)
    Language : English
    Default : No
    Forced : No
    Menu
    00: 00: 00.000 : en: 1
    00: 06: 30.015 : en: 2
    00: 11: 41.201 : en: 3
    00: 15: 52.869 : en: 4
    00: 20: 21.761 : en: 5
    00: 27: 00.408 : en: 6
    00: 34: 03.956 : en: 7
    00: 40: 08.236 : en: 8
    00: 43: 21.178 : en: 9
    00: 47: 42.730 : en: 10
    00: 55: 36.286 : en: 11
    00: 59: 38.318 : en: 12
    01: 06: 51.209 : en: 13
    01: 11: 45.545 : en: 14
    01: 17: 40.608 : en: 15
    01: 21: 47.895 : en: 16
    01: 25: 25.529 : en: 17
    01: 27: 57.763 : en: 18
    01: 31: 37.023 : en: 19
    01: 33: 56.870 : en: 20
    01: 38: 30.768 : en: 21
    01: 44: 10.983 : en: 22
    01: 50: 55.345 : en: 23
    01: 53: 32.834 : en: 24


    Онлайн видео Рождённый стать королём



    Рождённый стать королём/The Kid Who Would Be King (2019) WEB-DL [H.264/1080p-LQ]
    Рейтинг →
     (голосов: 1, оценка 4/5, голосовать можно 1 раз )

    Другие торренты по теме:

  • Рождённый стать королем / The Kid Who Would Be King (2019) CamRip [AD]
  • Рождённый стать королём / The Kid Who Would Be King (2019) BDRip [H.264 / 720p]
  • Рождённый стать королём / The Kid Who Would Be King (2019) BDRip [H.264 / 1080p]
  • Рождённый стать королём / The Kid Who Would Be King (2019) UHD BDRip [H.265 / 2160p-LQ] [4K, HDR, 10-bit]
  • Рождённый стать королём / The Kid Who Would Be King (2019) BDRemux [H.264 / 1080p]
  • Рождённый стать королём / The Kid Who Would Be King (2019) UHD BDRemux [H.265 / 2160p] [4K, HDR, 10-bit]
  • Рождённый стать королём / The Kid Who Would Be King (2019) BDRip [720p] ATV
  • Рождённый стать королём / The Kid Who Would Be King (2019) BDRip [1080p] ATV


    • Комментарии (0):

      Информация

      Информация

        Посетители, находящиеся в группе Гости, не могут оставлять комментарии в данной новости.

        ↓ Меню




        ↓ Опрос

        Вы добавили сайт в закладки?
        Да
        Нет


        Top 10 за месяц (Мультфильмы)