.
Авторизация | Регистрация

Торрент скачать бесплатно

  • support: webmaster@btracker.club
» » МиниФорс X / MiniForce X (2019) WEB-DLRip [H.264 / 720p-LQ] (сезон 2, серии 1-26 из 52) [Обновляемая] торрент скачать бесплатно


    МиниФорс X / MiniForce X (2019) WEB-DLRip [H.264 / 720p-LQ] (сезон 2, серии 1-26 из 52) [Обновляемая] торрент скачать бесплатно

    Дата: 1-03-2019, 05:00 | .torrent скачали: 44

    МиниФорс X / MiniForce X (2019) WEB-DLRip [H.264 / 720p-LQ] (сезон 2, серии 1-26 из 52) [Обновляемая]Жанр: Мультсериал, Компьютерная анимация
    Производство: Южная Корея
    Режиссер: Юн Джун Ли
    Главные персонажи: Вольт, Сэмми, Люси, Макс.

    Описание

    Новые приключения. Новые друзья. Новые доспехи. Команда Минифорс живет у своей подружки Сьюзи в небольшом городишке под названием Блубелль. Их миссия заключается в защите всего живого. Сьюзи только догадывается, что ее пушистые друзья являются супергероями, а не просто милыми и забавными говорящими зверушками. Коварные инопланетяне под предводительством Зеноса готовятся захватить планету Земля. Минифорс предстоит трансформироваться и воплотиться в новом качестве Минифорс Х чтобы противостоять новым противникам и победить их, использую новые доспехи и новые возможности.

    Возраст: 6+ (зрителям, достигшим 6 лет)
    Рейтинг MPAA: PG (рекомендуется присутствие родителей)
    Релиз от: Natasha77
    Продолжительность: ~00: 13: 00 серия
    Качество видео: WEB-DLRip
    Перевод: Русский/Дублированный/CLS MЕDIA
    Субтитры: Отсутствуют
    Видео: AVC/H.264, 1280x720, ~2569 kbps
    Аудио: Русский: AAC, 2 ch, 256 kbps
    Код: выделить все
    Общее
    Уникальный идентификатор : 68208125407668450934124916590611937768 (0x33506838D720EB73F87CD4E6721239E8)
    Полное имя : E:МиниФорс-2 (720p-AVC)s02e26. Последняя битва.mkv
    Формат : Matroska
    Версия формата : Version 4
    Размер файла : 263 Мбайт
    Продолжительность : 13 м. 3 с.
    Общий поток : 2818 Кбит/сек
    Дата кодирования : UTC 2019-02-28 07:14:56
    Программа кодирования : mkvmerge v31.0.0 (\'Dolores In A Shoestand\') 32-bit
    Библиотека кодирования : libebml v1.3.6 + libmatroska v1.4.9
    Видео
    Идентификатор : 1
    Формат : AVC
    Формат/Информация : Advanced Video Codec
    Профиль формата : High@L4
    Настройки формата : CABAC/4 Ref Frames
    Параметр CABAC формата : Да
    Параметр RefFrames формата : 4 кадра
    Идентификатор кодека : V_MPEG4/ISO/AVC
    Продолжительность : 13 м. 3 с.
    Битрейт : 2569 Кбит/сек
    Ширина : 1280 пикселей
    Высота : 720 пикселей
    Соотношение сторон : 16:9
    Режим частоты кадров : Постоянный
    Частота кадров : 25, 000 кадров/сек
    Цветовое пространство : YUV
    Субдискретизация насыщенности : 4:2:0
    Битовая глубина : 8 бит
    Тип развёртки : Прогрессивная
    Бит/(Пиксели*Кадры) : 0.112
    Размер потока : 239 Мбайт (91%)
    Библиотека кодирования : x264 core 142
    Default : Да
    Forced : Нет
    Аудио
    Идентификатор : 2
    Формат : AAC LC
    Формат/Информация : Advanced Audio Codec Low Complexity
    Идентификатор кодека : A_AAC-2
    Продолжительность : 13 м. 3 с.
    Битрейт : 256 Кбит/сек
    Каналы : 2 канала
    Channel layout : L R
    Частота : 48, 0 КГц
    Частота кадров : 46, 875 кадров/сек (1024 SPF)
    Метод сжатия : С потерями
    Размер потока : 23, 9 Мбайт (9%)
    Язык : English
    Default : Да
    Forced : Нет
    СЕЗОН 2
    s02e01. Супер сила Икс!
    s02e02. Минифорс Икс, Вперед!
    s02e03. Лживый пришелец
    s02e04. Паутина лжи
    s02e05. Ссора Вольта и Сэмми
    s02e06. Настоящая дружба
    s02e07. Подозрительные боты
    s02e08. Танцующие пришельцы
    s02e09. Проклятие ведьмы
    s02e10. Вперед, малыш Макс
    s02e11. Сладкое искушение
    s02e12. Спасем печенье Дедули!
    s02e13. Два солнца
    s02e14. Все за одного
    s02e15. Невидимый враг
    s02e16. Встреча с Зеносом
    s02e17. Великая шоколадная миссия
    s02e18. Влюбленная Люси
    s02e19. Темный рыцарь
    s02e20. Рэй против Темного рыцаря
    s02e21. Невыполненное обещания
    s02e22. Форс Икс Трон
    s02e23. Двойники Минифорс
    s02e24. Атака Данбота Зэд
    s02e25. Настоящий Зенос
    s02e26. Последняя битва

    Скриншоты для ознакомления


    28.02.2019. Добавлены 1-26 серии
    Смотрите также: Шахерезада. Нерассказанные истории , Защитники снов , Кротик и Панда , Лига WatchCar. Битвы чемпионов , МиниФорс , Макс Грин и инопланетяне , Рэй и пожарный патруль
    МиниФорс на NoNaMe Club


    Онлайн видео МиниФорс X



    МиниФорс X/MiniForce X (2019) WEB-DLRip [H.264/720p-LQ] (сезон 2, серии 1-26 из 52) [Обновляемая]
    Рейтинг →
     (голосов: 1, оценка 3/5, голосовать можно 1 раз )

    Другие торренты по теме:

  • МиниФорс / MiniForce (2017) WEB-DLRip [H.264 / 720p-LQ] (сезон 1, серии 1-26) [Обновляемая]
  • МиниФорс. Новые герои / MiniForce: New Heroes Rise (2017) WEB-DLRip [H.264 / 720p-LQ]


    • Комментарии (0):

      Информация

      Информация

        Посетители, находящиеся в группе Гости, не могут оставлять комментарии в данной новости.

        ↓ Меню




        ↓ Опрос

        Вы добавили сайт в закладки?
        Да
        Нет


        Top 10 за месяц (Мультфильмы)