.
Авторизация | Регистрация

Торрент скачать бесплатно

  • support: webmaster@btracker.club
» » Оранжевая корова (2018-2019) WEB-DLRip [H.264 / 720p-LQ] (сезон 1, серии 1-3 из 20) торрент скачать бесплатно


    Оранжевая корова (2018-2019) WEB-DLRip [H.264 / 720p-LQ] (сезон 1, серии 1-3 из 20) торрент скачать бесплатно

    Дата: 15-01-2019, 05:00 | .torrent скачали: 269

    Оранжевая корова (2018-2019) WEB-DLRip [H.264 / 720p-LQ] (сезон 1, серии 1-3 из 20)Жанр: Развивающий мультсериал для детей
    Производство: Россия/Союзмультфильм, Toonbox Studio, Первый канал
    Режиссер: Елена Чернова
    Персонажи: Телята Бо и Зо, поросенок Коля...
    Роли озвучивали: Лариса Брохман, Владимир Антоник, Анна Мосолова, Алиса Ландер

    Описание

    Веселые и поучительные истории из жизни одной дружной семьи коров, где подрастают маленькие брат и сестра Бо и Зо. Каждый день малыши узнают что-нибудь новое и приучаются к добрым делам. Красочный музыкальный сериал для дошкольников Оранжевая корова рассказывает о ценности дружбы, семьи и чуткого отношения к окружающим людям. Брат и сестра Боря и Зоя, более известные как Бо и Зо, – необычные телята, и не только из-за оранжевого цвета. Они живут в доме вместе с хозяйственной Мамой Коровой и сильным Папой Быком, любят сладкие пироги, играют в мяч, ищут приключения, но главное – исследуют окружающий мир. Иными словами, Бо и Зо – самые обыкновенные дети. Они дружат с веселым поросенком Колей и, как все малыши, иногда попадают в затруднительные ситуации. Как найти общий язык со сверстниками, с взрослыми и незнакомыми? Как нужно себя вести, чтобы никого не обидеть, а, наоборот, с легкостью заводить новых друзей? К счастью, внимательные родители всегда подскажут и подтвердят своим примером, что главное в этих вопросах – доброе слово и добрые дела.
    Возраст: 0+ (для любой зрительской аудитории)
    Релиз от: Natasha77
    Продолжительность: ~00: 06: 30 серия
    Качество видео: WEB-DLRip
    Перевод: Не требуется (Русский)
    Субтитры: Отсутствуют
    Видео: AVC/H.264, 1280x720, ~2569 kbps
    Аудио: Русский: AAC, 2 ch, 192 kbps
    Код: выделить все
    Общее
    Уникальный идентификатор : 93126670798062076357443022448900905643 (0x460F8B5D373519EE00E651A4C8571AAB)
    Полное имя : C:1_Ягодный пирог.mkv
    Формат : Matroska
    Версия формата : Version 4
    Размер файла : 128 Мбайт
    Продолжительность : 6 м. 31 с.
    Общий поток : 2744 Кбит/сек
    Дата кодирования : UTC 2019-01-12 02:24:17
    Программа кодирования : mkvmerge v30.1.0 (\'Forever And More\') 64-bit
    Библиотека кодирования : libebml v1.3.6 + libmatroska v1.4.9
    Видео
    Идентификатор : 1
    Формат : AVC
    Формат/Информация : Advanced Video Codec
    Профиль формата : High@L4
    Настройки формата : CABAC/4 Ref Frames
    Параметр CABAC формата : Да
    Параметр RefFrames формата : 4 кадра
    Идентификатор кодека : V_MPEG4/ISO/AVC
    Продолжительность : 6 м. 31 с.
    Битрейт : 2569 Кбит/сек
    Ширина : 1280 пикселей
    Высота : 720 пикселей
    Соотношение сторон : 16:9
    Режим частоты кадров : Постоянный
    Частота кадров : 25, 000 кадров/сек
    Цветовое пространство : YUV
    Субдискретизация насыщенности : 4:2:0
    Битовая глубина : 8 бит
    Тип развёртки : Прогрессивная
    Бит/(Пиксели*Кадры) : 0.112
    Размер потока : 119 Мбайт (93%)
    Библиотека кодирования : x264 core 142
    Default : Да
    Forced : Нет
    Аудио
    Идентификатор : 2
    Формат : AAC LC
    Формат/Информация : Advanced Audio Codec Low Complexity
    Идентификатор кодека : A_AAC-2
    Продолжительность : 6 м. 31 с.
    Битрейт : 192 Кбит/сек
    Каналы : 2 канала
    Channel layout : L R
    Частота : 48, 0 КГц
    Частота кадров : 46, 875 кадров/сек (1024 SPF)
    Метод сжатия : С потерями
    Размер потока : 8, 96 Мбайт (7%)
    Язык : Russian
    Default : Да
    Forced : Нет
    Российский познавательный мультсериал, созданный компанией Первый канал. Всемирная сеть и киностудией Союзмультфильм. В рамках первого сезон любимого сериалаа доброго и поучительного мультсериала Оранжевая корова его создатели сняли 20 эпизодов.
    В сериале Оранжевая корова маленьким зрителям показываются различные ситуации, в которые они могут попасть, и варианты, как можно из них выйти лучшим образом. Ситуации могут быть совершенно разные: от бытовых до тех, что возникают в общении как со взрослыми, так и со сверстниками. В Оранжевой корове дети и их родители видят трогательные, смешные, а иногда и весьма таинственных историй. Но все серии неизменно завершаются хорошо и на позитиве. Главные герои мультсериала Оранжевая корова — телята Бо и Зо, а также поросенок Коля, с которым они дружат.


    Онлайн видео Оранжевая корова (2018-2019) WEB-DLRip [H.264



    Оранжевая корова (2018-2019) WEB-DLRip [H.264/720p-LQ] (сезон 1, серии 1-3 из 20)
    Рейтинг →
     (голосов: 1, оценка 5/5, голосовать можно 1 раз )

    Другие торренты по теме:

  • Сергей Зверев | Оранжевая рубашка смертника (2017) [FB2]
  • Дональд Томпсон | Оранжевая собака из воздушных шаров. Дутые сенсации и подлинные шедевры (2018) [PDF]


    • Комментарии (0):

      Информация

      Информация

        Посетители, находящиеся в группе Гости, не могут оставлять комментарии в данной новости.

        ↓ Меню




        ↓ Опрос

        Вы добавили сайт в закладки?
        Да
        Нет


        Top 10 за месяц (Мультфильмы)

        Оранжевая корова (2018-2019) WEB-DLRip [H.264 / 720p-LQ] (сезон 1, серии 1-3 из 20)

        (скачиваний: 102)
        Рик и Морти / Rick and Morty (2015) WEB-DL [H.264 / 1080p] (Сезон 2, серии 1-10 из 10) Сыендук [EN / RU Sub] скачать через торрент бесплатно

        (скачиваний: 81)
        Джоан Кэтлин Роулинг | Гарри Поттер. Полное собрание [7 книг] (2005-2007) [PDF, DJVU, FB2, EPUB]

        (скачиваний: 54)
        Анна Рольская | Основы каллиграфии и леттеринга (2017) [PDF]

        (скачиваний: 41)
        Филип Рив | Цикл «Хроники хищных городов» [4 книги] (2018) [FB2]

        (скачиваний: 29)
        Три кота (2018) WEB-DLRip [H.264 / 720p-LQ] (сезон 3, серии 105-106 из 156)

        (скачиваний: 27)
        Русские народные сказки | Сказки для самых маленьких (1971) [MP3] скачать через торрент бесплатно

        (скачиваний: 23)
        Рик и Морти / Rick and Morty (2015) WEB-DLRip [H.264 / 720] (2 Сезон, серия 1 из ) Сыендук [Обновляемая] скачать через торрент бесплатно

        (скачиваний: 19)
        В гостях у сказки (сборник 56 фильмов) (1939-2009) DVDRip

        (скачиваний: 19)
        Детгиз, Детская литература | Библиотека приключений и научной фантастики (273 тома) (1936-2004) [FB2, PDF, DJVU, DOC, RTF]

        (скачиваний: 19)