.
Авторизация | Регистрация

Торрент скачать бесплатно

  • support: webmaster@btracker.club
» » Пластилинки. Циферки (2018-2019) WEB-DLRip [H.264 / 720p-LQ] (сезон 1, серии 1-6 из 10) торрент скачать бесплатно


    Пластилинки. Циферки (2018-2019) WEB-DLRip [H.264 / 720p-LQ] (сезон 1, серии 1-6 из 10) торрент скачать бесплатно

    Дата: 15-01-2019, 05:00 | .torrent скачали: 152

    Пластилинки. Циферки (2018-2019) WEB-DLRip [H.264 / 720p-LQ] (сезон 1, серии 1-6 из 10)Жанр: Развивающий мультсериал для детей
    Производство: Россия/Союзмультфильм, Первый канал
    Режиссер: Сергей Меринов
    Роли озвучивали: Андрей Левин, Юлия Рудина, Михаил Черняк, Марианна Мокшина, Максим Сергеев

    Описание

    Веселая арифметика для самых маленьких. Пластилиновые цифры оживают, чтобы подружиться с малышами, рассказать им о своем предназначении и научить их считать от одного до десяти. Команда мультипликаторов во главе с режиссером Сергеем Мериновым представляет развивающий мультфильм Пластилинки. Циферки, состоящий из десяти коротких выпусков. Еще никогда уроки устного счета не были такими яркими и увлекательными! Добро пожаловать в чудесный мир цифр. Для начала познакомимся со стройной зазнайкой Единичкой, которая всегда и везде стремится быть первой. Следом за ней идет печальный философ Двойка, который размышляет о двойственности всего на свете. А вы заметили, как он похож на лебедя? С ним по соседству живет энергичная Тройка (только не путайте с буквой З). Маленьким зрителям предстоит познакомиться с большой и разнообразной компанией цифр, но теперь малыши в них не запутаются. Наоборот, веселые цифры станут их близкими друзьями, и это дружба на всю жизнь!
    Возраст: 0+ (для любой зрительской аудитории)
    Релиз от: Natasha77
    Продолжительность: ~00: 02: 45 серия
    Качество видео: WEB-DLRip
    Перевод: Не требуется (Русский)
    Субтитры: Отсутствуют
    Видео: AVC/H.264, 1280x720, ~2569 kbps
    Аудио: Русский: AAC, 2 ch, 192 kbps
    Код: выделить все
    Общее
    Уникальный идентификатор : 118582739375485622327483250879799847253 (0x593634760F0183FBA335178B142596955)
    Полное имя : C:1_Цифра 1.mkv
    Формат : Matroska
    Версия формата : Version 4
    Размер файла : 54, 2 Мбайт
    Продолжительность : 2 м. 45 с.
    Общий поток : 2747 Кбит/сек
    Дата кодирования : UTC 2019-01-14 07:48:49
    Программа кодирования : mkvmerge v30.1.0 (\'Forever And More\') 32-bit
    Библиотека кодирования : libebml v1.3.6 + libmatroska v1.4.9
    Видео
    Идентификатор : 1
    Формат : AVC
    Формат/Информация : Advanced Video Codec
    Профиль формата : High@L4
    Настройки формата : CABAC/4 Ref Frames
    Параметр CABAC формата : Да
    Параметр RefFrames формата : 4 кадра
    Идентификатор кодека : V_MPEG4/ISO/AVC
    Продолжительность : 2 м. 45 с.
    Битрейт : 2569 Кбит/сек
    Ширина : 1280 пикселей
    Высота : 720 пикселей
    Соотношение сторон : 16:9
    Режим частоты кадров : Постоянный
    Частота кадров : 25, 000 кадров/сек
    Цветовое пространство : YUV
    Субдискретизация насыщенности : 4:2:0
    Битовая глубина : 8 бит
    Тип развёртки : Прогрессивная
    Бит/(Пиксели*Кадры) : 0.112
    Размер потока : 50, 4 Мбайт (93%)
    Default : Да
    Forced : Нет
    Аудио
    Идентификатор : 2
    Формат : AAC LC
    Формат/Информация : Advanced Audio Codec Low Complexity
    Идентификатор кодека : A_AAC-2
    Продолжительность : 2 м. 45 с.
    Битрейт : 192 Кбит/сек
    Каналы : 2 канала
    Channel layout : L R
    Частота : 48, 0 КГц
    Частота кадров : 46, 875 кадров/сек (1024 SPF)
    Метод сжатия : С потерями
    Размер потока : 3, 79 Мбайт (7%)
    Язык : English
    Default : Да
    Forced : Нет


    Онлайн видео Пластилинки. Циферки (2018-2019) WEB-DLRip [H.264



    Пластилинки. Циферки (2018-2019) WEB-DLRip [H.264/720p-LQ] (сезон 1, серии 1-6 из 10)
    Рейтинг →
     (голосов: 1, оценка 5/5, голосовать можно 1 раз )

    Другие торренты по теме:

  • Пластилинки. Азбука (1-33 серии из 33 + Бонус) (2013) WEBRip
  • Пластилинки. Зверушки (2019) WEB-DLRip [H.264 / 720p-LQ] (сезон 1, серии 1-5 из 20) [Обновляемая]


    • Комментарии (0):

      Информация

      Информация

        Посетители, находящиеся в группе Гости, не могут оставлять комментарии в данной новости.

        ↓ Меню




        ↓ Опрос

        Вы добавили сайт в закладки?
        Да
        Нет


        Top 10 за месяц (Мультфильмы)