.
Авторизация | Регистрация
Хочешь лучшие торренты? Добавь свой email!
Добавить

Торрент скачать бесплатно

  • support: webmaster@btracker.club
» » The Gakuen Choujotai | Школа супер девушек [1991, OVA, 1 из 1] DVDRip 472p raw торрент скачать бесплатно


    The Gakuen Choujotai | Школа супер девушек [1991, OVA, 1 из 1] DVDRip 472p raw торрент скачать бесплатно

    Опубликовал: fregat | Дата: 2-01-2019, 05:00 | .torrent скачали: 0

    The Gakuen Choujotai | Школа супер девушек [1991, OVA, 1 из 1] DVDRip 472p rawТип: OVA
    Жанр: приключения, мистика
    Продолжительность: 45 мин.
    Количество серий: 1 из 1
    Дата выпуска: 27.06.1991
    Производство: СтудияMagic Bus/マジックバス
    Автор оригинала: Дан Тацухико
    Режиссер: Дэдзаки Сатоси
    Ссылки: World-ArtANNAniDB

    Описание

    Три девушки, обладающие экстрасенсорными способностями, нашли группу поддержки правосудия под названием Gakuen Choujotai (Школа Супер Девушек). Психокинез Юми, телепат О-Кей и Май, обладающая сверхчеловеческой силой - они все ещё неопытны в использовании этих сил. Тем временем подозрительная организация Общество исследования психической силы тайно работает над методом контроля сознания учащихся. Настало время для Школы Супер Девушек!
    Язык озвучки: Японский
    Субтитры: Русские
    Перевод: Нарру; AlexMalkavian
    Качество видео: DVDRip
    Видео: AVC (High@L5.1), 640x472 (4: 3), ~29.970 fps, ~1200 kbps
    Аудио: MPEG Audio Layer 3, 2 ch, 48 kHz, ~128 kbps

    Скриншоты для ознакомления



    General
    Complete name : The Gakuen Choujotai OVAThe Gakuen Choujotai OVA.avi
    Format : AVI
    Format/Info : Audio Video Interleave
    File size : 434 MiB
    Duration : 45 min 11 s
    Overall bit rate : 1 342 kb/s
    Writing library : VirtualDub build 31953/release
    Video
    ID : 0
    Format : AVC
    Format/Info : Advanced Video Codec
    Format profile : High@L5.1
    Format settings : CABAC/4 Ref Frames
    Format settings, CABAC : Yes
    Format settings, ReFrames : 4 frames
    Codec ID : H264
    Duration : 45 min 11 s
    Bit rate : 1 200 kb/s
    Width : 640 pixels
    Height : 472 pixels
    Display aspect ratio : 4: 3
    Frame rate : 29.970 (30000/1001) FPS
    Color space : YUV
    Chroma subsampling : 4: 2: 0
    Bit depth : 8 bits
    Scan type : Progressive
    Bits/(Pixel*Frame) : 0.133
    Stream size : 389 MiB (90%)
    Writing library : x264 core 102 r1666bm d058f37
    Encoding settings : cabac=1/ref=3/deblock=1: 0: 0/analyse=0x3: 0x113/me=hex/subme=7/psy=1/psy_rd=1.00: 0.00/mixed_ref=1/me_range=16/chroma_me=1/trellis=1/8x8dct=1/cqm=0/deadzone=21, 11/fast_pskip=1/chroma_qp_offset=-2/threads=3/sliced_threads=0/nr=0/decimate=1/interlaced=0/constrained_intra=0/bframes=3/b_pyramid=2/b_adapt=1/b_bias=0/direct=1/weightb=1/open_gop=0/weightp=2/keyint=250/keyint_min=25/scenecut=40/intra_refresh=0/rc_lookahead=40/rc=abr/mbtree=1/bitrate=1200/ratetol=1.0/qcomp=0.60/qpmin=10/qpmax=51/qpstep=4/ip_ratio=1.40/aq=1: 1.00
    Audio
    ID : 1
    Format : MPEG Audio
    Format version : Version 1
    Format profile : Layer 3
    Codec ID : 55
    Codec ID/Hint : MP3
    Duration : 45 min 10 s
    Bit rate mode : Constant
    Bit rate : 128 kb/s
    Channel(s) : 2 channels
    Sampling rate : 48.0 kHz
    Frame rate : 41.667 FPS (1152 SPF)
    Compression mode : Lossy
    Stream size : 41.4 MiB (10%)
    Alignment : Split accross interleaves
    Interleave, duration : 33 ms (1.00 video frame)
    Interleave, preload duratio : 500 ms
    Writing library : LAME3.98r
    Encoding settings : -m s -V 4 -q 3 -lowpass 17 -b 128
    Время раздачи: 24/7 (круглосуточно) (до появления первых 3-5 скачавших)


    Онлайн видео The Gakuen Choujotai



    The Gakuen Choujotai | Школа супер девушек [1991, OVA, 1 из 1] DVDRip 472p raw
    Рейтинг →
     (голосов: 1, оценка 4/5, голосовать можно 1 раз )

    Другие торренты по теме:

  • Gakuen Basara | Gakuen Basara: Samurai High School | Школа смут [2018, TV, 3 из 12] WEBRip 720p HS
  • Школа под прицелом / Nerawareta gakuen (2012) BDRip [576p] iPad
  • Touhou SF ~Oto to Danmaku to Gakuen mono~ (2011) [FLAC|Lossless] <Touhou, Vocal, Doujin Ongaku, J-Pop, Electronic> скачать через торрент бесплатно
  • Gakuen Mokushiroku: High School of the Dead | High School of the Dead |Школа Мертвецов [2010, TV, 12 + 1 эп.] BDRip 720p Hi10P raw
  • Danganronpa / Danganronpa Kibou no Gakuen to Zetsubou no Koukousei The Animation [2013, TV, 13] BDrip 1080p Hi10p raw скачать через торрент бесплатно
  • Prison School | KANGOKU GAKUEN | Школа-Тюрьма [1-108 гл., 2011] [Русский] [Манга] [incomplete] [+16] скачать через торрент бесплатно
  • Mikagura Gakuen Kumikyoku / Mikagura School Suite / Сюита школы Микагура [2015, TV, 1 из 12 ep] HDTV 720p Raw скачать через торрент бесплатно
  • Kangoku Gakuen / Prison School / Школа строгого режима [2015, TV, 5 из 12] HDTV 720p Raw+Rus скачать через торрент бесплатно


    • Комментарии (0):

      Информация

      Информация

        Посетители, находящиеся в группе Гости, не могут оставлять комментарии в данной новости.

        ↓ Меню




        ↓ Опрос

        Вы добавили сайт в закладки?
        Да
        Нет


        Top 10 за месяц (Мультфильмы)

        Оранжевая корова (2018-2019) WEB-DLRip [H.264 / 720p-LQ] (сезон 1, серии 1-3 из 20)

        (скачиваний: 75)
        Рик и Морти / Rick and Morty (2015) WEB-DL [H.264 / 1080p] (Сезон 2, серии 1-10 из 10) Сыендук [EN / RU Sub] скачать через торрент бесплатно

        (скачиваний: 38)
        Филип Рив | Цикл «Хроники хищных городов» [4 книги] (2018) [FB2]

        (скачиваний: 20)
        Три кота (2018) WEB-DLRip [H.264 / 720p-LQ] (сезон 3, серии 105-106 из 156)

        (скачиваний: 18)
        Пластилинки. Циферки (2018-2019) WEB-DLRip [H.264 / 720p-LQ] (сезон 1, серии 1-6 из 10)

        (скачиваний: 17)
        Джоан Кэтлин Роулинг | Гарри Поттер. Полное собрание [7 книг] (2005-2007) [PDF, DJVU, FB2, EPUB]

        (скачиваний: 13)
        А.А. Спектор | Большая книга химических элементов (2018) [DJVU]

        (скачиваний: 13)
        Том Тит | Научные забавы. Интересные опыты, самоделки, развлечения (2019) [PDF]

        (скачиваний: 12)
        Яков Перельман | Головоломки. Фокусы. Задачи. Игры. Развлечения (2017) [FB2]

        (скачиваний: 11)
        Кир Булычев | Серия книг "Алиса Селезнева" [53 книги] (1998-2017) [FB2]

        (скачиваний: 11)